Вы используете незарегистрированную версию компонента "Вкладки"!

Поиск

(Avant-Garde Jazz) [CD] Aaly Trio + Ken Vandermark (Mats Gustafsson, Peter Janson, Kjell Nordeson) - Live At The Glenn Miller Cafe - 1999, FLAC (image+.cue), lossless

(Avant-Garde Jazz) [CD] Aaly Trio + Ken Vandermark (Mats Gustafsson, Peter Janson, Kjell Nordeson) - Live At The Glenn Miller Cafe - 1999, FLAC (image+.cue), lossless
Треклист:
Aaly Trio + Ken Vandermark / Live At The Glenn Miller Cafe
Жанр: Avant-Garde Jazz
Носитель: CD
Страна-производитель диска: US
Год издания: 1999
Издатель (лейбл): Wobbly Rail
Номер по каталогу: WOB008
Аудиокодек: FLAC (*.flac)
Тип рипа: image+.cue
Битрейт аудио: lossless
Продолжительность: 51:07
Источник (релизер): CD
Наличие сканов в содержимом раздачи: нет
Треклист:
1. Unit Character (for Jimmy Lyons) 8:56
2. Ghosts 7:42
3. Alva Jo 12:21
4. Idioms 11:55
 
Лог создания рипа
Exact Audio Copy V1.0 beta 2 from 29. April 2011
EAC extraction logfile from 11. March 2014, 13:39
Aaly Trio + Ken Vandermark / Live at the Glenn Miller Cafe
Used drive : Optiarc DVD RW AD-7170A Adapter: 0 ID: 0
Read mode : Secure
Utilize accurate stream : Yes
Defeat audio cache : Yes
Make use of C2 pointers : No
Read offset correction : 48
Overread into Lead-In and Lead-Out : No
Fill up missing offset samples with silence : Yes
Delete leading and trailing silent blocks : No
Null samples used in CRC calculations : Yes
Used interface : Native Win32 interface for Win NT & 2000
Used output format : User Defined Encoder
Selected bitrate : 320 kBit/s
Quality : High
Add ID3 tag : No
Command line compressor : C:\Program Files\Exact Audio Copy\Flac\flac.exe
Additional command line options : -V -8 -T "Date=%year%" -T "Genre=%genre%" %source%
TOC of the extracted CD
Track | Start | Length | Start sector | End sector
---------------------------------------------------------
1 | 0:00.00 | 9:00.39 | 0 | 40538
2 | 9:00.39 | 17:47.23 | 40539 | 120586
3 | 26:47.62 | 12:24.64 | 120587 | 176450
4 | 39:12.51 | 11:55.09 | 176451 | 230084
Range status and errors
Selected range
Filename K:\ЕАС\Aaly Trio + Ken Vandermark - Live at the Glenn Miller Cafe.wav
Peak level 100.0 %
Extraction speed 1.9 X
Range quality 99.9 %
Test CRC 3885B66D
Copy CRC 3885B66D
Copy OK
No errors occurred
AccurateRip summary
Track 1 cannot be verified as accurate (confidence 2) [61FCC7E0], AccurateRip returned [9095F14C] (AR v2)
Track 2 cannot be verified as accurate (confidence 2) [37684A9F], AccurateRip returned [7994A2A8] (AR v2)
Track 3 cannot be verified as accurate (confidence 2) [DEF50DBB], AccurateRip returned [853E8AE4] (AR v2)
Track 4 cannot be verified as accurate (confidence 2) [3F0DAC81], AccurateRip returned [3141875A] (AR v2)
No tracks could be verified as accurate
You may have a different pressing from the one(s) in the database
End of status report
==== Log checksum 38EE89A83DDEB5E872894D48C50E0BFD0D7674AEEECD8F34AB82571AF667D953 ====
 
Содержание индексной карты (.CUE)
REM GENRE Jazz
REM DATE 1999
REM DISCID 2B0BFB04
REM COMMENT "ExactAudioCopy v1.0b2"
PERFORMER "Aaly Trio + Ken Vandermark"
TITLE "Live at the Glenn Miller Cafe"
FILE "Aaly Trio + Ken Vandermark - Live at the Glenn Miller Cafe.flac" WAVE
TRACK 01 AUDIO
TITLE "Unit Character"
PERFORMER "Aaly Trio + Ken Vandermark"
ISRC 000000000000
INDEX 01 00:00:00
TRACK 02 AUDIO
TITLE "Ghosts"
PERFORMER "Aaly Trio + Ken Vandermark"
ISRC 000000000000
INDEX 00 08:56:67
INDEX 01 09:00:39
TRACK 03 AUDIO
TITLE "Alva Jo"
PERFORMER "Aaly Trio + Ken Vandermark"
ISRC 000000000000
INDEX 00 26:42:68
INDEX 01 26:47:62
TRACK 04 AUDIO
TITLE "Idioms"
PERFORMER "Aaly Trio + Ken Vandermark"
ISRC 000000000000
INDEX 00 39:09:00
INDEX 01 39:12:51
Доп. информация: Live at the Glenn Miller Cafe, Stockholm, March 10, 1999.
 
Об альбоме (сборнике)
The third release by this Swedish free jazz trio, again augmented by Chicago multi-reedist Vandermark, continues the muscular, no-holds-barred approach of Hidden in the Stomach and Stumble. Recorded live in Stockholm, this set consists of two originals and two covers. Vandermark's "Unit Character," dedicated to alto saxophonist Jimmy Lyons, roars into action with a feverish post-bop head, leading to hair-raising solos by Mats Gustafsson on alto and the composer on tenor, intertwining with near telepathic sympathy. Midway through, drummer Kjell Nordeson underpins more ferocious reed work with an almost blues-rock riff before things surge back toward a restatement of the theme. Nordeson is featured throughout the next track, Albert Ayler's "Ghosts." Ayler is certainly one of the touchstones for this band. In fact, the name "Aaly" derives from an Art Ensemble of Chicago composition, "Lebert Aaly," itself a near anagram of Albert Ayler. A sensitive solo from bassist Peter Janson leads into Gustafsson's bluesy "Alva Jo," whose sultry, down-home melody might come as a surprise to those who only know him from his frenetic explorations of the saxophone's outer boundaries, which he definitely gets to later in the track. Vandermark has devoted considerable time to recognizing little-known avant jazz greats and this set closes with a piece by one of them: "Idioms" by British free jazz pioneer Joe Harriott, a lilting, sunny piece where Vandermark is able to showcase his delicious clarinet work.
Overall, a fine, substantial album showing the trio (plus one) in solid form.
 
Состав
Alto Saxophone, Tenor Saxophone – Mats Gustafsson
Bass – Peter Janson
Drums – Kjell Nordeson
Tenor Saxophone, Clarinet – Ken Vandermark
Any questions -> support@pro-jazz.com. По всем вопросам пишите -> support@pro-jazz.com
00:10
205
Нет комментариев. Ваш будет первым!