Вы используете незарегистрированную версию компонента "Вкладки"!

Поиск

(Avant-Garde Jazz) [CD] Aaly Trio & DKV Trio (Mats Gustafsson, Ken Vandermark, Ingebrigt Haker Flaten, Kent Kessler, Hamid Drake, Kjell Nordeson) - Double Or Nothing - 2002, FLAC (image+.cue), lossless

(Avant-Garde Jazz) [CD] Aaly Trio & DKV Trio (Mats Gustafsson, Ken Vandermark, Ingebrigt Haker Flaten, Kent Kessler, Hamid Drake, Kjell Nordeson) - Double Or Nothing - 2002, FLAC (image+.cue), lossless
Треклист:
Aaly Trio & DKV Trio / Double Or Nothing
Жанр: Avant-Garde Jazz
Носитель: CD
Страна-производитель диска: US
Год издания: 2002
Издатель (лейбл): Okka Disk
Номер по каталогу: OD12035
Аудиокодек: FLAC (*.flac)
Тип рипа: image+.cue
Битрейт аудио: lossless
Продолжительность: 51:36
Источник (релизер): CD
Наличие сканов в содержимом раздачи: нет
Треклист:
1) Left To Right (13:15)
2a) Angels (21:12)
2b) Awake Nu (17:06)
 
Лог создания рипа
Exact Audio Copy V1.0 beta 2 from 29. April 2011
EAC extraction logfile from 11. March 2014, 11:09
Aaly Trio & DKV Trio / Double or Nothing
Used drive : Optiarc DVD RW AD-7170A Adapter: 0 ID: 0
Read mode : Secure
Utilize accurate stream : Yes
Defeat audio cache : Yes
Make use of C2 pointers : No
Read offset correction : 48
Overread into Lead-In and Lead-Out : No
Fill up missing offset samples with silence : Yes
Delete leading and trailing silent blocks : No
Null samples used in CRC calculations : Yes
Used interface : Native Win32 interface for Win NT & 2000
Used output format : User Defined Encoder
Selected bitrate : 320 kBit/s
Quality : High
Add ID3 tag : No
Command line compressor : C:\Program Files\Exact Audio Copy\Flac\flac.exe
Additional command line options : -V -8 -T "Date=%year%" -T "Genre=%genre%" %source%
TOC of the extracted CD
Track | Start | Length | Start sector | End sector
---------------------------------------------------------
1 | 0:00.00 | 13:17.49 | 0 | 59823
2 | 13:17.49 | 21:11.73 | 59824 | 155221
3 | 34:29.47 | 17:07.13 | 155222 | 232259
Range status and errors
Selected range
Filename K:\ЕАС\Aaly Trio & DKV Trio - Double or Nothing.wav
Peak level 98.5 %
Extraction speed 1.9 X
Range quality 100.0 %
Test CRC E469AE7D
Copy CRC E469AE7D
Copy OK
No errors occurred
AccurateRip summary
Track 1 accurately ripped (confidence 3) [BAF08048] (AR v2)
Track 2 accurately ripped (confidence 3) [DD9A579D] (AR v2)
Track 3 accurately ripped (confidence 3) [F4550D1B] (AR v2)
All tracks accurately ripped
End of status report
==== Log checksum 3B0BD9A0A53A8F9D0DDF94EA9BAE04420DEE472F05A1D3287534B26B1C53273B ====
 
Содержание индексной карты (.CUE)
REM GENRE Jazz
REM DATE 2002
REM DISCID 250C1803
REM COMMENT "ExactAudioCopy v1.0b2"
PERFORMER "Aaly Trio & DKV Trio"
TITLE "Double or Nothing"
FILE "Aaly Trio & DKV Trio - Double or Nothing.flac" WAVE
TRACK 01 AUDIO
TITLE "Left To Right"
PERFORMER "Aaly Trio & DKV Trio"
ISRC 000000000000
INDEX 01 00:00:00
TRACK 02 AUDIO
TITLE "Angels"
PERFORMER "Aaly Trio & DKV Trio"
ISRC 000000000000
INDEX 00 13:13:42
INDEX 01 13:17:49
TRACK 03 AUDIO
TITLE "Awake Nu"
PERFORMER "Aaly Trio & DKV Trio"
ISRC 000000000000
INDEX 01 34:29:47
Доп. информация: AALY Trio (Gustafsson, Nordeson, Flaten) on left channel; DKV Trio (Vandermark, Kessler, Drake) on right channel.
Recorded September 23, 1999 at Airwave Studios, Chicago.
Track 2 is a long performance with an index point at the start of the Awake Nu theme.
 
Об альбоме (сборнике)
Double or Nothing documents a meeting that was bound to happen, as likeminded and closely connected as these groups are. The Swedish AALY and Chicago DKV are both fiery powerhouse trios with a penchant for covering Albert Ayler and Don Cherry when not playing tunes of their own. DKV member Ken Vandermark has also joined AALY on each of that group's four albums. The result is what fans would expect, but no more. With AALY heard in the left channel and DKV in the right, the album opens with a recording of Vandermark's "Left to Right," which predates the version found on AALY's 2000 release, I Wonder if I Was Screaming. This time around, it kicks off with a five-minute drum duo by Kjell Nordeson and Hamid Drake. The rest of the album consists of a particularly dynamic performance -- ranging from sparsely quiet to shredding -- of Ayler's "Angels," a Vandermark favorite, which leads without break into Cherry's "Awake Nu." Both Mats Gustafsson and DKV would separately revisit "Awake Nu" in the next couple of years; these versions can be heard on The Thing (Crazy Wisdom, 2001) and Trigonometry (Okkadisk, 2002).
 
Состав
Alto Saxophone, Tenor Saxophone – Mats Gustafsson
Artwork [Cover Art] – Peter Brötzmann
Clarinet [Bb], Bass Clarinet, Tenor Saxophone, Mixed By – Ken Vandermark
Double Bass – Ingebrigt Håker Flaten, Kent Kessler
Drums – Hamid Drake, Kjell Nordeson
Any questions -> support@pro-jazz.com. По всем вопросам пишите -> support@pro-jazz.com
00:09
334
Нет комментариев. Ваш будет первым!