Вы используете незарегистрированную версию компонента "Вкладки"!

Поиск

(Avant-Garde, Free Jazz, Post-Bop) [CD] Joe Rosenberg’s Affinity featuring Dewey Redman - A Tribute to Ornette Coleman - 1996, FLAC (tracks+.cue), lossless

(Avant-Garde, Free Jazz, Post-Bop) [CD] Joe Rosenberg’s Affinity featuring Dewey Redman - A Tribute to Ornette Coleman - 1996, FLAC (tracks+.cue), lossless
Треклист:
Joe Rosenberg’s Affinity featuring Dewey Redman / A Tribute to Ornette Coleman
Жанр: Avant-Garde, Free Jazz, Post-Bop
Носитель: CD
Страна-производитель диска: U.S.A.
Год издания: 1996
Издатель (лейбл): Music & Arts Programs of America
Номер по каталогу: CD 938
Аудиокодек: FLAC (*.flac)
Тип рипа: tracks+.cue
Битрейт аудио: lossless
Продолжительность: 1:12:18
Источник (релизер): я
Наличие сканов в содержимом раздачи: да
Треклист:
1. Blues Connotation 11:28
2. Peace 12:48
3. Face of the Bass 7:51
4. The Sphinx 14:35
5. Beauty Is a Rare Thing 11:32
6. Little Symphony 14:04
All compositions by Ornette Coleman.
Recorded live at New Langton Arts, San Francisco, CA, May 6, 1995.
Dewey Redman – Tenor Sax
Joe Rosenberg – Soprano Sax
Michael Silverman – Bass
Bobby Lurie – Drums
 
Лог создания рипа
Exact Audio Copy V1.0 beta 3 from 29. August 2011
EAC extraction logfile from 12. March 2014, 13:37
Joe Rosenberg's Affinity featuring Dewey Redman / A Tribute to Ornette Coleman
Used drive : SlimtypeeNAU508 5 Adapter: 1 ID: 0
Read mode : Secure
Utilize accurate stream : Yes
Defeat audio cache : Yes
Make use of C2 pointers : No
Read offset correction : 6
Overread into Lead-In and Lead-Out : No
Fill up missing offset samples with silence : Yes
Delete leading and trailing silent blocks : No
Null samples used in CRC calculations : Yes
Used interface : Native Win32 interface for Win NT & 2000
Gap handling : Appended to previous track
Used output format : User Defined Encoder
Selected bitrate : 768 kBit/s
Quality : High
Add ID3 tag : No
Command line compressor : C:\Program Files (x86)\Exact Audio Copy\Flac\flac.exe
Additional command line options : -8 -V -T "ARTIST=%artist%" -T "TITLE=%title%" -T "ALBUM=%albumtitle%" -T "DATE=%year%" -T "TRACKNUMBER=%tracknr%" -T "TOTALTRACKS=%numtracks%" -T "GENRE=%genre%" -T "ALBUMARTIST=%albumartist%" -T "ALBUM ARTIST=%albumartist%" -T "COMMENT=EAC Secure Mode, Test & Copy, AccurateRip, FLAC -8" %source%
TOC of the extracted CD
Track | Start | Length | Start sector | End sector
---------------------------------------------------------
1 | 0:00.00 | 11:27.57 | 0 | 51581
2 | 11:27.57 | 12:47.55 | 51582 | 109161
3 | 24:15.37 | 7:51.00 | 109162 | 144486
4 | 32:06.37 | 14:35.20 | 144487 | 210131
5 | 46:41.57 | 11:32.33 | 210132 | 262064
6 | 58:14.15 | 14:03.62 | 262065 | 325351
Track 1
Filename C:\EAC rips\01 - Blues Connotation.wav
Pre-gap length 0:00:02.00
Peak level 97.1 %
Extraction speed 2.8 X
Track quality 100.0 %
Test CRC A857942A
Copy CRC A857942A
Accurately ripped (confidence 2) [9D095AA6] (AR v1)
Copy OK
Track 2
Filename C:\EAC rips\02 - Peace.wav
Pre-gap length 0:00:01.52
Peak level 38.3 %
Extraction speed 3.5 X
Track quality 100.0 %
Test CRC 6CC2466B
Copy CRC 6CC2466B
Accurately ripped (confidence 2) [CFEA1733] (AR v1)
Copy OK
Track 3
Filename C:\EAC rips\03 - Face of the Bass.wav
Pre-gap length 0:00:02.37
Peak level 63.1 %
Extraction speed 3.8 X
Track quality 100.0 %
Test CRC 6275AB0B
Copy CRC 6275AB0B
Accurately ripped (confidence 2) [F712BD4E] (AR v1)
Copy OK
Track 4
Filename C:\EAC rips\04 - The Sphinx.wav
Pre-gap length 0:00:01.07
Peak level 75.5 %
Extraction speed 4.4 X
Track quality 100.0 %
Test CRC 70CDAEDC
Copy CRC 70CDAEDC
Accurately ripped (confidence 2) [64784500] (AR v1)
Copy OK
Track 5
Filename C:\EAC rips\05 - Beauty Is a Rare Thing.wav
Pre-gap length 0:00:02.07
Peak level 38.6 %
Extraction speed 4.8 X
Track quality 100.0 %
Test CRC E0677710
Copy CRC E0677710
Accurately ripped (confidence 2) [552B09AE] (AR v1)
Copy OK
Track 6
Filename C:\EAC rips\06 - Little Symphony.wav
Peak level 87.9 %
Extraction speed 5.2 X
Track quality 100.0 %
Test CRC A6F29B2E
Copy CRC A6F29B2E
Accurately ripped (confidence 2) [3F145E08] (AR v1)
Copy OK
All tracks accurately ripped
No errors occurred
End of status report
---- CUETools DB Plugin V2.1.4
[CTDB TOCID: 9nzA5snj379_SJA6Kcr2CUGD0UM-] disk not present in database
Submit result: 9nzA5snj379_SJA6Kcr2CUGD0UM- has been uploaded
==== Log checksum B75B2593DCD7890F18735C46A8C1A2011C23F5B415C343DAFF07CE0567A5BEC5 ====
 
Содержание индексной карты (.CUE)
REM GENRE Jazz
REM DATE 1996
REM DISCID 6110F206
REM COMMENT "ExactAudioCopy v1.0b3"
PERFORMER "Joe Rosenberg's Affinity featuring Dewey Redman"
TITLE "A Tribute to Ornette Coleman"
FILE "01 - Blues Connotation.wav" WAVE
TRACK 01 AUDIO
TITLE "Blues Connotation"
PERFORMER "Joe Rosenberg's Affinity featuring Dewey Redman"
INDEX 01 00:00:00
TRACK 02 AUDIO
TITLE "Peace"
PERFORMER "Joe Rosenberg's Affinity featuring Dewey Redman"
INDEX 00 11:26:05
FILE "02 - Peace.wav" WAVE
INDEX 01 00:00:00
TRACK 03 AUDIO
TITLE "Face of the Bass"
PERFORMER "Joe Rosenberg's Affinity featuring Dewey Redman"
INDEX 00 12:45:18
FILE "03 - Face of the Bass.wav" WAVE
INDEX 01 00:00:00
TRACK 04 AUDIO
TITLE "The Sphinx"
PERFORMER "Joe Rosenberg's Affinity featuring Dewey Redman"
INDEX 00 07:49:68
FILE "04 - The Sphinx.wav" WAVE
INDEX 01 00:00:00
TRACK 05 AUDIO
TITLE "Beauty Is a Rare Thing"
PERFORMER "Joe Rosenberg's Affinity featuring Dewey Redman"
INDEX 00 14:33:13
FILE "05 - Beauty Is a Rare Thing.wav" WAVE
INDEX 01 00:00:00
FILE "06 - Little Symphony.wav" WAVE
TRACK 06 AUDIO
TITLE "Little Symphony"
PERFORMER "Joe Rosenberg's Affinity featuring Dewey Redman"
INDEX 01 00:00:00
По всем вопросам пишите личное сообщение пользователю M0p94ok.
00:08
214
Нет комментариев. Ваш будет первым!