Вы используете незарегистрированную версию компонента "Вкладки"!

Поиск

(Avant-Garde Jazz) Pear - Extemp'ore - 2011, WavPack (image+.cue), lossless

(Avant-Garde Jazz) Pear - Extemp'ore - 2011, WavPack (image+.cue), lossless
Треклист:
•Pear - Extemp'ore•
Жанр: Avant-Garde Jazz
Страна-производитель диска: U.S.A.
Год издания диска: 2011
Издатель (лейбл): PearStudio Records
Номер по каталогу: PSCD 4001
Аудиокодек: WavPack (*.wv)
Тип рипа: image+.cue
Битрейт аудио: lossless
Продолжительность: 01:09:29
Источник (релизер): gribovar
Наличие сканов в содержимом раздачи: да
Треклист:
01. Dewey Miles
02. The Frenchman
03. Jenn 2 Sect 1
04. Jimmy 1a
05. Von Schkinny
06. Session 15
07. Tribute To Lorraine
08. C W
09. Carl Session 2
10. A Nod To Her Majesty
11. Prince Open
12. Fast Jenn
13. Black Socks
 
Лог создания рипа
Exact Audio Copy V1.0 beta 3 from 29. August 2011
EAC extraction logfile from 15. December 2011, 21:40
Pear / Extemp'ore
Used drive : HL-DT-STDVDRAM GSA-H10N Adapter: 4 ID: 0
Read mode : Secure
Utilize accurate stream : Yes
Defeat audio cache : Yes
Make use of C2 pointers : No
Read offset correction : 667
Overread into Lead-In and Lead-Out : No
Fill up missing offset samples with silence : Yes
Delete leading and trailing silent blocks : No
Null samples used in CRC calculations : Yes
Used interface : Native Win32 interface for Win NT & 2000
Used output format : Internal WAV Routines
Sample format : 44.100 Hz; 16 Bit; Stereo
TOC of the extracted CD
Track | Start | Length | Start sector | End sector
---------------------------------------------------------
1 | 0:00.00 | 5:36.46 | 0 | 25245
2 | 5:36.46 | 7:07.25 | 25246 | 57295
3 | 12:43.71 | 9:00.11 | 57296 | 97806
4 | 21:44.07 | 4:08.58 | 97807 | 116464
5 | 25:52.65 | 5:53.46 | 116465 | 142985
6 | 31:46.36 | 6:38.70 | 142986 | 172905
7 | 38:25.31 | 5:45.09 | 172906 | 198789
8 | 44:10.40 | 1:35.16 | 198790 | 205930
9 | 45:45.56 | 9:22.46 | 205931 | 248126
10 | 55:08.27 | 0:52.61 | 248127 | 252087
11 | 56:01.13 | 6:51.63 | 252088 | 282975
12 | 62:53.01 | 2:04.72 | 282976 | 292347
13 | 64:57.73 | 4:30.66 | 292348 | 312663
Range status and errors
Selected range
Filename D:\TMP_MUSIC\Pear - Extemp'ore (2011) HQShare by egotrsh\Pear - Extemp'ore.wav
Peak level 99.8 %
Extraction speed 7.7 X
Range quality 100.0 %
Test CRC D248CDF2
Copy CRC D248CDF2
Copy OK
No errors occurred
AccurateRip summary
Track 1 not present in database
Track 2 not present in database
Track 3 not present in database
Track 4 not present in database
Track 5 not present in database
Track 6 not present in database
Track 7 not present in database
Track 8 not present in database
Track 9 not present in database
Track 10 not present in database
Track 11 not present in database
Track 12 not present in database
Track 13 not present in database
None of the tracks are present in the AccurateRip database
End of status report
---- CUETools DB Plugin V2.1.3
[CTDB TOCID: RUuXQz50DwmZ9mgBoolz1BWcjSE-] disk not present in database, Submit result: RUuXQz50DwmZ9mgBoolz1BWcjSE- has been uploaded
==== Log checksum F935823768F798061F4F4FB18D8040E706F17FA98BE20E5D702CA187472DB39C ====
 
Содержание индексной карты (.CUE)
REM GENRE Electronic
REM DATE 2011
REM DISCID C510480D
REM COMMENT "ExactAudioCopy v1.0b3"
PERFORMER "Pear"
TITLE "Extemp'ore"
FILE "Pear - Extemp'ore.wv" WAVE
TRACK 01 AUDIO
TITLE "Dewey Miles"
PERFORMER "Pear"
INDEX 01 00:00:00
TRACK 02 AUDIO
TITLE "The Frenchman"
PERFORMER "Pear"
INDEX 00 05:35:61
INDEX 01 05:36:46
TRACK 03 AUDIO
TITLE "Jenn 2 Sect 1"
PERFORMER "Pear"
INDEX 00 12:42:19
INDEX 01 12:43:71
TRACK 04 AUDIO
TITLE "Jimmy 1a"
PERFORMER "Pear"
INDEX 00 21:41:59
INDEX 01 21:44:07
TRACK 05 AUDIO
TITLE "Von Schkinny"
PERFORMER "Pear"
INDEX 00 25:51:14
INDEX 01 25:52:65
TRACK 06 AUDIO
TITLE "Session 15"
PERFORMER "Pear"
INDEX 01 31:46:36
TRACK 07 AUDIO
TITLE "Tribute To Lorraine"
PERFORMER "Pear"
INDEX 00 38:22:34
INDEX 01 38:25:31
TRACK 08 AUDIO
TITLE "C W"
PERFORMER "Pear"
INDEX 00 44:05:56
INDEX 01 44:10:40
TRACK 09 AUDIO
TITLE "Carl Session 2"
PERFORMER "Pear"
INDEX 01 45:45:56
TRACK 10 AUDIO
TITLE "A Nod To Her Majesty"
PERFORMER "Pear"
INDEX 00 55:02:66
INDEX 01 55:08:27
TRACK 11 AUDIO
TITLE "Prince Open"
PERFORMER "Pear"
INDEX 00 56:00:44
INDEX 01 56:01:13
TRACK 12 AUDIO
TITLE "Fast Jenn"
PERFORMER "Pear"
INDEX 00 62:51:31
INDEX 01 62:53:01
TRACK 13 AUDIO
TITLE "Black Socks"
PERFORMER "Pear"
INDEX 00 64:57:04
INDEX 01 64:57:73
 
Состав
Rick Milne: percussion; Nick Pierone: keyboards; Sivad Selim: trumpet; Annie Wadhams, Mel Boyman, Cindy Wonderful; Polly and Clara Pierone: voices; Jennifer Leitham: bass; Jimmy Johnson: bass; Carl Verheyen: guitar; Prince Diabate: kora; Lorraine Milne: answering machine.
Any questions -> support@pro-jazz.com. По всем вопросам пишите -> support@pro-jazz.com
20:12
213
Нет комментариев. Ваш будет первым!