Вы используете незарегистрированную версию компонента "Вкладки"!

Поиск

(avant-garde jazz) Aaron Staebell - Bending & Breaking - 2011, FLAC (image+.cue), lossless

(avant-garde jazz) Aaron Staebell - Bending & Breaking - 2011, FLAC (image+.cue), lossless
Треклист:
Aaron Staebell / Bending & Breaking
Жанр: avant-garde jazz
Страна-производитель диска: USA
Год издания диска: 2011
Издатель (лейбл): Grumbleboxx Music
Страна: USA
Аудиокодек: FLAC (*.flac)
Тип рипа: image+.cue
Битрейт аудио: lossless
Продолжительность: 76:13
Источник (релизер): Собственный рип
Наличие сканов в содержимом раздачи: да
Треклист:
1. Grumbleboxx
2. Nathaniel Hill
3. Thank You John
4. Ben Dover
5. I Learn By Going Where I Have To Go
6. April 4; Boston
7. Lay Down Your Burden
8. Klooge
9. Promise
10. Nobody Reads Your Blog
 
Лог создания рипа
Exact Audio Copy V1.0 beta 3 from 29. August 2011
EAC extraction logfile from 25. December 2011, 11:25
Aaron Staebell / Bending & Breaking
Used drive : Optiarc DVD RW AD-7243S Adapter: 0 ID: 1
Read mode : Secure
Utilize accurate stream : Yes
Defeat audio cache : Yes
Make use of C2 pointers : No
Read offset correction : 48
Overread into Lead-In and Lead-Out : No
Fill up missing offset samples with silence : Yes
Delete leading and trailing silent blocks : No
Null samples used in CRC calculations : Yes
Used interface : Native Win32 interface for Win NT & 2000
Used output format : User Defined Encoder
Selected bitrate : 128 kBit/s
Quality : High
Add ID3 tag : No
Command line compressor : C:\Program Files\Exact Audio Copy\FLAC\FLAC.EXE
Additional command line options : V -8 -T "Date=%year%" -T "Genre=%genre%" %source%
TOC of the extracted CD
Track | Start | Length | Start sector | End sector
---------------------------------------------------------
1 | 0:00.00 | 5:33.28 | 0 | 25002
2 | 5:33.28 | 10:00.53 | 25003 | 70055
3 | 15:34.06 | 8:38.27 | 70056 | 108932
4 | 24:12.33 | 7:29.03 | 108933 | 142610
5 | 31:41.36 | 12:31.26 | 142611 | 198961
6 | 44:12.62 | 8:54.22 | 198962 | 239033
7 | 53:07.09 | 7:04.70 | 239034 | 270903
8 | 60:12.04 | 8:01.57 | 270904 | 307035
9 | 68:13.61 | 3:02.00 | 307036 | 320685
10 | 71:15.61 | 6:18.21 | 320686 | 349056
Range status and errors
Selected range
Filename C:\Documents and Settings\S\Мои документы\Torrent раздача\Aaron Staebell - Bending & Breaking.wav
Peak level 96.2 %
Extraction speed 4.5 X
Range quality 100.0 %
Test CRC 38611133
Copy CRC 38611133
Copy OK
No errors occurred
AccurateRip summary
Track 1 not present in database
Track 2 not present in database
Track 3 not present in database
Track 4 not present in database
Track 5 not present in database
Track 6 not present in database
Track 7 not present in database
Track 8 not present in database
Track 9 not present in database
Track 10 not present in database
None of the tracks are present in the AccurateRip database
End of status report
==== Log checksum 61FEBD318F38C0AA19BD83DF239EC02736CEF8AC87BD729FC93DFF5576F81C7A ====
 
Содержание индексной карты (.CUE)
REM GENRE "avant-garde jazz"
REM DATE 2011
REM DISCID 94122E0A
REM COMMENT "ExactAudioCopy v1.0b3"
PERFORMER "Aaron Staebell"
TITLE "Bending & Breaking"
FILE "Aaron Staebell - Bending & Breaking.flac" WAVE
TRACK 01 AUDIO
TITLE "Grumbleboxx"
PERFORMER "Aaron Staebell"
ISRC USX691100001
FLAGS DCP
INDEX 01 00:00:00
TRACK 02 AUDIO
TITLE "Nathaniel Hill"
PERFORMER "Aaron Staebell"
ISRC USX691100002
FLAGS DCP
INDEX 01 05:33:28
TRACK 03 AUDIO
TITLE "Thank You John"
PERFORMER "Aaron Staebell"
ISRC USX691100003
FLAGS DCP
INDEX 01 15:34:06
TRACK 04 AUDIO
TITLE "Ben Dover"
PERFORMER "Aaron Staebell"
ISRC USX691100004
FLAGS DCP
INDEX 01 24:12:33
TRACK 05 AUDIO
TITLE "..I Learn By Going Where I Have To Go"
PERFORMER "Aaron Staebell"
ISRC USX691100005
FLAGS DCP
INDEX 01 31:41:36
TRACK 06 AUDIO
TITLE "April 4:Boston"
PERFORMER "Aaron Staebell"
ISRC USX691100006
FLAGS DCP
INDEX 01 44:12:62
TRACK 07 AUDIO
TITLE "Lay Down Your Burden"
PERFORMER "Aaron Staebell"
ISRC USX691100007
FLAGS DCP
INDEX 01 53:07:09
TRACK 08 AUDIO
TITLE "Klooge"
PERFORMER "Aaron Staebell"
ISRC USX691100008
FLAGS DCP
INDEX 01 60:12:04
TRACK 09 AUDIO
TITLE "Promice"
PERFORMER "Aaron Staebell"
ISRC USX691100009
FLAGS DCP
INDEX 01 68:13:61
TRACK 10 AUDIO
TITLE "Nobody Reads Your Blog"
PERFORMER "Aaron Staebell"
ISRC USX691100010
FLAGS DCP
INDEX 01 71:15:61
 
Состав
Aaron Staebell - drumset & percussion, compositions
Ben Thomas - bass
Chris Ziemba - piani & key.
Dave Chriholm - trumpet
Wills Mckenna - sax
Другие раздачи
http://rutracker.org/forum/search.php?uid=17163016
Any questions -> support@pro-jazz.com. По всем вопросам пишите -> support@pro-jazz.com
20:12
187
Нет комментариев. Ваш будет первым!