Вы используете незарегистрированную версию компонента "Вкладки"!

Поиск

(Avant-Garde Jazz, Post-Bop) Ray Anderson - It Just So Happens - 1987, FLAC (tracks+.cue), lossless

(Avant-Garde Jazz, Post-Bop) Ray Anderson - It Just So Happens - 1987, FLAC (tracks+.cue), lossless
Треклист:
•Ray Anderson - It Just So Happens•
Жанр: Avant-Garde Jazz, Post-Bop
Год издания диска: 1987
Издатель (лейбл): Enja
Номер по каталогу: 5037
Аудиокодек: FLAC (*.flac)
Тип рипа: tracks+.cue
Битрейт аудио: lossless
Продолжительность: 00:53:36
Источник (релизер): mishka1981
Наличие сканов в содержимом раздачи: да
Треклист:
01. Once In A While (6:25)
02. It Just So Happens (5:58)
03. Ross The Boss (7:32)
04. Elegy For Joe Scott (5:23)
05. La Vie En Rose (4:20)
06. Once In A While (6:28)
07. Raven's Jolly Jump-Up (5:29)
08. Fatelet (7:02)
09. Fishin' With Gramps (4:59)
Personnel:
Stanton Davis (tp)
Perry Robinson (cl)
Ray Anderson (tb)
Bob Stewart (tuba)
Mark Dresser (b)
Ronnie Burrage (dr)
 
Лог создания рипа
Exact Audio Copy V1.0 beta 1 from 15. November 2010
EAC extraction logfile from 27. December 2011, 2:53
Ray Anderson / It Just So Happens
Used drive : Optiarc DVD RW AD-7710H Adapter: 1 ID: 0
Read mode : Secure
Utilize accurate stream : Yes
Defeat audio cache : Yes
Make use of C2 pointers : No
Read offset correction : 48
Overread into Lead-In and Lead-Out : No
Fill up missing offset samples with silence : Yes
Delete leading and trailing silent blocks : No
Null samples used in CRC calculations : Yes
Used interface : Native Win32 interface for Win NT & 2000
Gap handling : Appended to previous track
Used output format : User Defined Encoder
Selected bitrate : 896 kBit/s
Quality : High
Add ID3 tag : No
Command line compressor : C:\Program Files\Exact Audio Copy\FLAC\FLAC.EXE
Additional command line options : -8 -V -T "ARTIST=%a" -T "TITLE=%t" -T "ALBUM=%g" -T "DATE=%y" -T "TRACKNUMBER=%n" -T "GENRE=%m" -T "COMMENT=%e" %j--picture="%i"%j %s -o %d
TOC of the extracted CD
Track | Start | Length | Start sector | End sector
---------------------------------------------------------
1 | 0:00.32 | 6:24.70 | 32 | 28901
2 | 6:25.27 | 5:57.65 | 28902 | 55741
3 | 12:23.17 | 7:32.08 | 55742 | 89649
4 | 19:55.25 | 5:22.72 | 89650 | 113871
5 | 25:18.22 | 4:20.05 | 113872 | 133376
6 | 29:38.27 | 6:28.00 | 133377 | 162476
7 | 36:06.27 | 5:29.05 | 162477 | 187156
8 | 41:35.32 | 7:02.08 | 187157 | 218814
9 | 48:37.40 | 4:59.10 | 218815 | 241249
Track 1
Filename C:\MY RIPS\01 - Once In A While.wav
Pre-gap length 0:00:02.32
Peak level 76.8 %
Extraction speed 2.9 X
Track quality 100.0 %
Test CRC 02F23396
Copy CRC 02F23396
Accurately ripped (confidence 5) [4E157123]
Copy OK
Track 2
Filename C:\MY RIPS\02 - It Just So Happens.wav
Pre-gap length 0:00:04.62
Peak level 73.5 %
Extraction speed 3.4 X
Track quality 100.0 %
Test CRC 050700A9
Copy CRC 050700A9
Accurately ripped (confidence 5) [6677AAD5]
Copy OK
Track 3
Filename C:\MY RIPS\03 - Ross The Boss.wav
Pre-gap length 0:00:03.60
Peak level 70.8 %
Extraction speed 3.9 X
Track quality 100.0 %
Test CRC D89EA76C
Copy CRC D89EA76C
Accurately ripped (confidence 5) [4062B9F5]
Copy OK
Track 4
Filename C:\MY RIPS\04 - Elegy For Joe Scott.wav
Pre-gap length 0:00:03.55
Peak level 71.5 %
Extraction speed 4.1 X
Track quality 100.0 %
Test CRC 61A41C41
Copy CRC 61A41C41
Accurately ripped (confidence 5) [81460136]
Copy OK
Track 5
Filename C:\MY RIPS\05 - La Vie En Rose.wav
Pre-gap length 0:00:02.42
Peak level 67.7 %
Extraction speed 4.3 X
Track quality 100.0 %
Test CRC D2DE4AA3
Copy CRC D2DE4AA3
Accurately ripped (confidence 5) [C2AAF9A0]
Copy OK
Track 6
Filename C:\MY RIPS\06 - Once In A While.wav
Pre-gap length 0:00:02.25
Peak level 79.7 %
Extraction speed 4.7 X
Track quality 100.0 %
Test CRC 1213CBA9
Copy CRC 1213CBA9
Accurately ripped (confidence 5) [103B0D4F]
Copy OK
Track 7
Filename C:\MY RIPS\07 - Raven's Jolly Jump-Up.wav
Pre-gap length 0:00:02.57
Peak level 72.9 %
Extraction speed 4.2 X
Track quality 99.9 %
Test CRC 23AC81E6
Copy CRC 23AC81E6
Accurately ripped (confidence 5) [E6BB65D1]
Copy OK
Track 8
Filename C:\MY RIPS\08 - Fatelet.wav
Pre-gap length 0:00:03.67
Peak level 61.6 %
Extraction speed 5.3 X
Track quality 100.0 %
Test CRC 61B149D3
Copy CRC 61B149D3
Accurately ripped (confidence 5) [9523C2F5]
Copy OK
Track 9
Filename C:\MY RIPS\09 - Fishin' With Gramps.wav
Pre-gap length 0:00:02.58
Peak level 76.3 %
Extraction speed 5.4 X
Track quality 100.0 %
Test CRC C32A1A64
Copy CRC C32A1A64
Accurately ripped (confidence 3) [CD6EA0CC]
Copy OK
All tracks accurately ripped
No errors occurred
End of status report
==== Log checksum 4C5195FE57BE2094304F102633C9DA1C21444E9A0E13875746D9AC3EB3E96954 ====
 
Содержание индексной карты (.CUE)
REM GENRE Jazz
REM DISCID 8A0C9009
REM COMMENT "ExactAudioCopy v1.0b1"
PERFORMER "Ray Anderson"
TITLE "It Just So Happens"
FILE "01 - Once In A While.wav" WAVE
TRACK 01 AUDIO
TITLE "Once In A While"
PERFORMER "Ray Anderson"
PREGAP 00:00:32
INDEX 01 00:00:00
TRACK 02 AUDIO
TITLE "It Just So Happens"
PERFORMER "Ray Anderson"
INDEX 00 06:20:08
FILE "02 - It Just So Happens.wav" WAVE
INDEX 01 00:00:00
TRACK 03 AUDIO
TITLE "Ross The Boss"
PERFORMER "Ray Anderson"
INDEX 00 05:54:05
FILE "03 - Ross The Boss.wav" WAVE
INDEX 01 00:00:00
TRACK 04 AUDIO
TITLE "Elegy For Joe Scott"
PERFORMER "Ray Anderson"
INDEX 00 07:28:28
FILE "04 - Elegy For Joe Scott.wav" WAVE
INDEX 01 00:00:00
TRACK 05 AUDIO
TITLE "La Vie En Rose"
PERFORMER "Ray Anderson"
INDEX 00 05:20:30
FILE "05 - La Vie En Rose.wav" WAVE
INDEX 01 00:00:00
TRACK 06 AUDIO
TITLE "Once In A While"
PERFORMER "Ray Anderson"
INDEX 00 04:17:55
FILE "06 - Once In A While.wav" WAVE
INDEX 01 00:00:00
TRACK 07 AUDIO
TITLE "Raven's Jolly Jump-Up"
PERFORMER "Ray Anderson"
INDEX 00 06:25:18
FILE "07 - Raven's Jolly Jump-Up.wav" WAVE
INDEX 01 00:00:00
TRACK 08 AUDIO
TITLE "Fatelet"
PERFORMER "Ray Anderson"
INDEX 00 05:25:13
FILE "08 - Fatelet.wav" WAVE
INDEX 01 00:00:00
TRACK 09 AUDIO
TITLE "Fishin' With Gramps"
PERFORMER "Ray Anderson"
INDEX 00 06:59:25
FILE "09 - Fishin' With Gramps.wav" WAVE
INDEX 01 00:00:00
Any questions -> support@pro-jazz.com. По всем вопросам пишите -> support@pro-jazz.com
20:13
273
Нет комментариев. Ваш будет первым!