Вы используете незарегистрированную версию компонента "Вкладки"!

Поиск

(Avant-Garde Jazz / norway) Møster! (Moster!) (Kjetil Moster, Stale Storlokken, Nikolai Eilertsen, Kenneth Kapstad) - Edvard Lygre Moster - 2013 [Hubro CD2527], FLAC (tracks+.cue), lossless

(Avant-Garde Jazz / norway) Møster! (Moster!) (Kjetil Moster, Stale Storlokken, Nikolai Eilertsen, Kenneth Kapstad) - Edvard Lygre Moster - 2013 [Hubro CD2527], FLAC (tracks+.cue), lossless
Издатель (лейбл):
Треклист:
Møster! - Edvard Lygre Møster
Жанр: Avant-Garde Jazz
Страна-производитель диска: Norway
Год издания: 2013
Издатель (лейбл): Hubro
Номер по каталогу: HUBRO CD2527
Аудиокодек: FLAC (*.flac)
Тип рипа: tracks+.cue
Битрейт аудио: lossless
Продолжительность: 00:46:33
Источник (релизер): what.cd / спасибо evensteven
Наличие сканов в содержимом раздачи: нет
Треклист:
1. Plastic Disco (12:10)
2. Ransom Bird (11:01)
3. Composition Task #1 (07:00)
4. The Boat (16:20)
Доп. информация:
Musicians:
Kjetil Møster - tenor and baritone saxophones, electronics
Ståle Storløkken - Fender Rhodes, Moog, electronics
Nikolai Hængsle Eilertsen - electric bass, electronics
Kenneth Kapstad - drums
Recorded live at Victoria - Nasjonal Jazzscene, Oslo, December 3, 2011
© 2013 Hubro
Kjetil Møster Official Site
Kjetil Møster from Wikipedia, the free encyclopedia
Møster! - Edvard Lygre Møster hubromusic.com
Møster! - Edvard Lygre Møster allaboutjazz.com
Møster! - Edvard Lygre Møster allmusic.com
 
... photo ...
 
... album info ...
Saxophonist Kjetil Møster has been one of our very favourite musicians for a long time. In the band Møster he is fronting a dream team of Norwegian musicians: Ståle Storløkken (Supersilent), Nikolai Eilertsen (Elephant 9, Big Bang) and Kenneth Kapstad (Motorpsycho). We are proud to be able to release Edvard Lygre Møster, a powerful live album recorded at the Victoria in Oslo in December 2011.
Kjetil Møster’s tenor sax playing in bands such as Ultralyd, Zaussi Five and The Core, and in collaboration with Chick Corea and the Trondheim Jazzorkester, has placed him firmly on the map. He was voted “International Young Jazz Talent” in 2006 by the organisations IJFO and IAJE. The band “Møster” was formed when he was invited to the Kongsberg Jazzfestival in 2010, and marked Kjetil’s return to jazz after extensive tours of several years’ duration with the electro-rock band Datarock. The group’s musical idiom is energetic, rock-inspired and dark, and according to Kjetil his goal with the band is to place the artistic style and intensity of his hero John Coltrane in a modern context. For me, this album is a personal expression of the music I have listened to and what I have been thinking about since I was a child.”
Kjetil Møster was given free rein when putting his new band together, and all the musicians he chose have a personal relationship with much of the music of the 1960s and 70s, and are trying to convey these traditions to a new landscape. He describes the group’s musicians individually: Keyboard player Ståle Storløkken operates in an exquisite and colourful universe of sound, while at the same time he is an encyclopaedia of prog-rock and has explored early jazz-rock thoroughly. Bassist Nikolai Eilertsen, in addition to being among the few who have kept the warm, deep groove of 1970s funk and soul, is a virtuoso of the highest order, with both an excellent overview of harmony and a sense of freedom in his improvisations. Kenneth Kapstad is an immensely flexible drummer, with exceptional tenacity and technique.
It is not without reason that the band Møster’s first album is a live recording. “I think that every band discovers itself on stage, in front of an audience,” says Kjetil. “It was at the concert presented on this album that we found our voice as a band, and it was a lucky coincidence that we were able to have it recorded so successfully.”
hubromusic.com
 
Лог создания рипа
Exact Audio Copy V1.0 beta 3 from 29. August 2011
EAC extraction logfile from 21. June 2013, 19:50
Møster! / Edvard Lygre Møster
Used drive : PLEXTOR DVDR PX-760A Adapter: 3 ID: 0
Read mode : Secure
Utilize accurate stream : Yes
Defeat audio cache : Yes
Make use of C2 pointers : No
Read offset correction : 30
Overread into Lead-In and Lead-Out : Yes
Fill up missing offset samples with silence : Yes
Delete leading and trailing silent blocks : No
Null samples used in CRC calculations : Yes
Used interface : Native Win32 interface for Win NT & 2000
Gap handling : Appended to previous track
Used output format : User Defined Encoder
Selected bitrate : 1024 kBit/s
Quality : High
Add ID3 tag : No
Command line compressor : C:\Program Files (x86)\Exact Audio Copy\Flac\flac.exe
Additional command line options : -8 -V -T "ARTIST=%artist%" -T "TITLE=%title%" -T "ALBUM=%albumtitle%" -T "DATE=%year%" -T "TRACKNUMBER=%tracknr%" -T "GENRE=%genre%" -T "PERFORMER=%albuminterpret%" -T "COMPOSER=%composer%" %haslyrics%--tag-from-file=LYRICS="%lyricsfile%"%haslyrics% -T "ALBUMARTIST=%albumartist%" -T "ALBUM ARTIST=%albumartist%" -T "DISCNUMBER=%cdnumber%" -T "TOTALDISCS=%totalcds%" -T "TOTALTRACKS=%numtracks%" -T "COMMENT=%comment%" %source% -o %dest%
TOC of the extracted CD
Track | Start | Length | Start sector | End sector
---------------------------------------------------------
1 | 0:00.00 | 12:10.37 | 0 | 54786
2 | 12:10.37 | 11:01.53 | 54787 | 104414
3 | 23:12.15 | 7:00.39 | 104415 | 135953
4 | 30:12.54 | 16:20.37 | 135954 | 209490
Track 1
Filename C:\EACRips\01 Plastic Disco.wav
Pre-gap length 0:00:02.00
Peak level 98.8 %
Extraction speed 2.4 X
Track quality 100.0 %
Test CRC F8E2CE5D
Copy CRC F8E2CE5D
Track not present in AccurateRip database
Copy OK
Track 2
Filename C:\EACRips\02 Ransom Bird.wav
Peak level 98.8 %
Extraction speed 2.4 X
Track quality 100.0 %
Test CRC D03961EB
Copy CRC D03961EB
Track not present in AccurateRip database
Copy OK
Track 3
Filename C:\EACRips\03 Composition Task #1.wav
Peak level 98.8 %
Extraction speed 2.3 X
Track quality 100.0 %
Test CRC 7A865720
Copy CRC 7A865720
Track not present in AccurateRip database
Copy OK
Track 4
Filename C:\EACRips\04 The Boat.wav
Peak level 99.2 %
Extraction speed 2.5 X
Track quality 100.0 %
Test CRC B935E5CF
Copy CRC B935E5CF
Track not present in AccurateRip database
Copy OK
None of the tracks are present in the AccurateRip database
No errors occurred
End of status report
---- CUETools DB Plugin V2.1.3
[CTDB TOCID: VhGkblXMYoD7nrQoMM3IhGU9xW4-] disk not present in database, Submit result: VhGkblXMYoD7nrQoMM3IhGU9xW4- has been uploaded
==== Log checksum 1AD907583DA6D9A90E6EA5F39CC4E40753A8AAC401F94FA1CFEE7442AF069FF0 ====
 
Содержание индексной карты (.CUE)
REM GENRE Alternative
REM DATE 2013
REM DISCID 2D0AE904
REM COMMENT "ExactAudioCopy v1.0b3"
PERFORMER "Moster!"
TITLE "Edvard Lygre Moster"
FILE "01 Plastic Disco.wav" WAVE
TRACK 01 AUDIO
TITLE "Plastic Disco"
PERFORMER "Moster!"
ISRC NOFGH1327010
INDEX 01 00:00:00
FILE "02 Ransom Bird.wav" WAVE
TRACK 02 AUDIO
TITLE "Ransom Bird"
PERFORMER "Moster!"
ISRC NOFGH1327020
INDEX 01 00:00:00
FILE "03 Composition Task #1.wav" WAVE
TRACK 03 AUDIO
TITLE "Composition Task #1"
PERFORMER "Moster!"
ISRC NOFGH1327030
INDEX 01 00:00:00
FILE "04 The Boat.wav" WAVE
TRACK 04 AUDIO
TITLE "The Boat"
PERFORMER "Moster!"
ISRC NOFGH1327040
INDEX 01 00:00:00
 
auCDtect Task Manager
-----------------------
DON'T MODIFY THIS FILE
-----------------------
PERFORMER: auCDtect Task Manager, ver. 1.5.1RC6 build 1.5.1.7
Copyright (c) 2008-2010 y-soft. All rights reserved
http://y-soft.org
ANALYZER: auCDtect: CD records authenticity detector, version 0.8.2
Copyright (c) 2004 Oleg Berngardt. All rights reserved.
Copyright (c) 2004 Alexander Djourik. All rights reserved.
FILE: 04 The Boat.flac
Size: 113293899 Hash: 3CA5899E6F44A9F25BD8EB716F5E785F Accuracy: -m0
Conclusion: CDDA 100%
Signature: 6442C83BAE81E109C462184D9E80DE73DF744E37
FILE: 03 Composition Task #1.flac
Size: 35951074 Hash: 16DA1016982930814AFECED891AA94D6 Accuracy: -m0
Conclusion: CDDA 100%
Signature: 69A4B87B2489CF0BFBBF2A687DDB3EF5DEAF9033
FILE: 02 Ransom Bird.flac
Size: 79674901 Hash: AA0096C4F979011F5CF705EB7C4CC6AD Accuracy: -m0
Conclusion: CDDA 99%
Signature: 617673EF5292EC7135478A68426A882DF11D0B6E
FILE: 01 Plastic Disco.flac
Size: 75035317 Hash: 7055769CCCCA63E2528EE820E3A40AC5 Accuracy: -m0
Conclusion: CDDA 100%
Signature: 5B500DF74A944344869721A1A084369742780E0D
Any questions -> support@pro-jazz.com. По всем вопросам пишите -> support@pro-jazz.com
20:40
192
Нет комментариев. Ваш будет первым!