Вы используете незарегистрированную версию компонента "Вкладки"!

Поиск

(Avant-Garde Jazz, Free Improvisation) Henry Kaiser - Requia And Other Improvisations For Guitar Solo - 2013, FLAC (tracks+.cue), lossless

(Avant-Garde Jazz, Free Improvisation) Henry Kaiser - Requia And Other Improvisations For Guitar Solo - 2013, FLAC (tracks+.cue), lossless
Треклист:
♦ Henry Kaiser - Requia And Other Improvisations For Guitar Solo ♦
Жанр: Avant-Garde Jazz, Free Improvisation
Год издания: 2013
Издатель (лейбл): Tzadik
Номер по каталогу: 7645
Аудиокодек: FLAC (*.flac)
Тип рипа: tracks+.cue
Битрейт аудио: lossless
Продолжительность: 01:06:31
Источник (релизер): artmuss
Наличие сканов в содержимом раздачи: нет
Треклист:
01. Basho's Journey [09:14]
02. Famadihana Requiem for Dr. JB [02:11]
03. Requiem for Fred Lieberman [21:53]
04. Sun Ra, Stockhausen, and Feldman Walk into a Bar on Saturn [08:14]
05. Tandem Ghost Bike for Pete Cosey & Sonny Sharrock [09:27]
06. Ships that Pass in the Night For Masayuki Takayanagi & Toru Takemitsu [02:43]
07. The Many Worlds of Hubert Sumlin [03:49]
08. Blind Joe Death vs. Charlie Appleyard [05:09]
09. Blue Spirits for Randy California [03:47]
 
Лог создания рипа
Exact Audio Copy V1.0 beta 3 from 29. August 2011
EAC extraction logfile from 19. November 2013, 22:53
Henry Kaiser / Requia and Other Improvisations for Guitar Solo
Used drive : TSSTcorpCD/DVDW SH-S182D Adapter: 1 ID: 0
Read mode : Secure
Utilize accurate stream : Yes
Defeat audio cache : Yes
Make use of C2 pointers : No
Read offset correction : 6
Overread into Lead-In and Lead-Out : No
Fill up missing offset samples with silence : Yes
Delete leading and trailing silent blocks : No
Null samples used in CRC calculations : Yes
Used interface : Native Win32 interface for Win NT & 2000
Gap handling : Appended to previous track
Used output format : User Defined Encoder
Selected bitrate : 1024 kBit/s
Quality : High
Add ID3 tag : No
Command line compressor : C:\Program Files\Exact Audio Copy\FLAC\flac.exe
Additional command line options : -8 -V -T "ARTIST=%artist%" -T "TITLE=%title%" -T "ALBUM=%albumtitle%" -T "DATE=%year%" -T "TRACKNUMBER=%tracknr%" -T "GENRE=%genre%" -T "PERFORMER=%albuminterpret%" -T "COMPOSER=%composer%" %haslyrics%--tag-from-file=LYRICS="%lyricsfile%"%haslyrics% -T "ALBUMARTIST=%albumartist%" -T "DISCNUMBER=%cdnumber%" -T "TOTALDISCS=%totalcds%" -T "TOTALTRACKS=%numtracks%" -T "COMMENT=%comment%" %source% -o %dest%
TOC of the extracted CD
Track | Start | Length | Start sector | End sector
---------------------------------------------------------
1 | 0:00.00 | 9:20.69 | 0 | 42068
2 | 9:20.69 | 2:16.63 | 42069 | 52331
3 | 11:37.57 | 21:56.30 | 52332 | 151061
4 | 33:34.12 | 8:19.19 | 151062 | 188505
5 | 41:53.31 | 9:33.10 | 188506 | 231490
6 | 51:26.41 | 2:49.64 | 231491 | 244229
7 | 54:16.30 | 3:55.07 | 244230 | 261861
8 | 58:11.37 | 5:14.36 | 261862 | 285447
9 | 63:25.73 | 3:47.28 | 285448 | 302500
Track 1
Filename H:\from downloads\Henry Kaiser - 2013 - Requia and Other Improvisations for Guitar Solo\01 - Basho's Journey.wav
Pre-gap length 0:00:02.00
Peak level 98.8 %
Extraction speed 4.9 X
Track quality 100.0 %
Test CRC F7719568
Copy CRC F7719568
Track not present in AccurateRip database
Copy OK
Track 2
Filename H:\from downloads\Henry Kaiser - 2013 - Requia and Other Improvisations for Guitar Solo\02 - Famadihana Requiem for Dr. JB.wav
Pre-gap length 0:00:06.00
Peak level 98.7 %
Extraction speed 4.6 X
Track quality 100.0 %
Test CRC DC7A718F
Copy CRC DC7A718F
Track not present in AccurateRip database
Copy OK
Track 3
Filename H:\from downloads\Henry Kaiser - 2013 - Requia and Other Improvisations for Guitar Solo\03 - Requiem for Fred Lieberman.wav
Pre-gap length 0:00:05.00
Peak level 98.9 %
Extraction speed 6.8 X
Track quality 100.0 %
Test CRC E085E6BA
Copy CRC E085E6BA
Track not present in AccurateRip database
Copy OK
Track 4
Filename H:\from downloads\Henry Kaiser - 2013 - Requia and Other Improvisations for Guitar Solo\04 - Sun Ra, Stockhausen, and Feldman Walk into a Bar on Saturn.wav
Pre-gap length 0:00:03.00
Peak level 98.7 %
Extraction speed 7.6 X
Track quality 100.0 %
Test CRC CC565B90
Copy CRC CC565B90
Track not present in AccurateRip database
Copy OK
Track 5
Filename H:\from downloads\Henry Kaiser - 2013 - Requia and Other Improvisations for Guitar Solo\05 - Tandem Ghost Bike for Pete Cosey & Sonny Sharrock.wav
Pre-gap length 0:00:05.00
Peak level 95.5 %
Extraction speed 8.2 X
Track quality 100.0 %
Test CRC B344DF0E
Copy CRC B344DF0E
Track not present in AccurateRip database
Copy OK
Track 6
Filename H:\from downloads\Henry Kaiser - 2013 - Requia and Other Improvisations for Guitar Solo\06 - Ships that Pass in the Night For Masayuki Takayanagi & Toru Takemitsu.wav
Pre-gap length 0:00:06.00
Peak level 98.4 %
Extraction speed 7.5 X
Track quality 100.0 %
Test CRC AA4E0CE6
Copy CRC AA4E0CE6
Track not present in AccurateRip database
Copy OK
Track 7
Filename H:\from downloads\Henry Kaiser - 2013 - Requia and Other Improvisations for Guitar Solo\07 - The Many Worlds of Hubert Sumlin.wav
Pre-gap length 0:00:06.00
Peak level 98.7 %
Extraction speed 8.0 X
Track quality 100.0 %
Test CRC EB4A3641
Copy CRC EB4A3641
Track not present in AccurateRip database
Copy OK
Track 8
Filename H:\from downloads\Henry Kaiser - 2013 - Requia and Other Improvisations for Guitar Solo\08 - Blind Joe Death vs. Charlie Appleyard.wav
Pre-gap length 0:00:06.00
Peak level 98.8 %
Extraction speed 8.5 X
Track quality 100.0 %
Test CRC 951C2F61
Copy CRC 951C2F61
Track not present in AccurateRip database
Copy OK
Track 9
Filename H:\from downloads\Henry Kaiser - 2013 - Requia and Other Improvisations for Guitar Solo\09 - Blue Spirits for Randy California.wav
Pre-gap length 0:00:05.00
Peak level 94.4 %
Extraction speed 8.4 X
Track quality 100.0 %
Test CRC FE07A9B0
Copy CRC FE07A9B0
Track not present in AccurateRip database
Copy OK
None of the tracks are present in the AccurateRip database
No errors occurred
End of status report
==== Log checksum 6C5A0A345B829EEAB817EEDF2553A00A510C2C70FD040568A3500B6AA1DD8F84 ====
 
Содержание индексной карты (.CUE)
REM GENRE Avantgarde
REM DATE 2013
REM DISCID 870FC109
REM COMMENT "ExactAudioCopy v1.0b3"
FILE "01 - Basho's Journey.wav" WAVE
TRACK 01 AUDIO
INDEX 01 00:00:00
TRACK 02 AUDIO
INDEX 00 09:14:69
FILE "02 - Famadihana Requiem for Dr. JB.wav" WAVE
INDEX 01 00:00:00
TRACK 03 AUDIO
INDEX 00 02:11:63
FILE "03 - Requiem for Fred Lieberman.wav" WAVE
INDEX 01 00:00:00
TRACK 04 AUDIO
INDEX 00 21:53:30
FILE "04 - Sun Ra, Stockhausen, and Feldman Walk into a Bar on Saturn.wav" WAVE
INDEX 01 00:00:00
TRACK 05 AUDIO
INDEX 00 08:14:19
FILE "05 - Tandem Ghost Bike for Pete Cosey & Sonny Sharrock.wav" WAVE
INDEX 01 00:00:00
TRACK 06 AUDIO
INDEX 00 09:27:10
FILE "06 - Ships that Pass in the Night For Masayuki Takayanagi & Toru Takemitsu.wav" WAVE
INDEX 01 00:00:00
TRACK 07 AUDIO
INDEX 00 02:43:64
FILE "07 - The Many Worlds of Hubert Sumlin.wav" WAVE
INDEX 01 00:00:00
TRACK 08 AUDIO
INDEX 00 03:49:07
FILE "08 - Blind Joe Death vs. Charlie Appleyard.wav" WAVE
INDEX 01 00:00:00
TRACK 09 AUDIO
INDEX 00 05:09:36
FILE "09 - Blue Spirits for Randy California.wav" WAVE
INDEX 01 00:00:00
Any questions -> support@pro-jazz.com. По всем вопросам пишите -> support@pro-jazz.com
20:40
135
Нет комментариев. Ваш будет первым!