Вы используете незарегистрированную версию компонента "Вкладки"!

Поиск

(Avant-Garde, Modern Free, ECM) Louis Sclavis (w/ Vincent Courtois, Mederic Collignon, Hasse Poulsen) - Napoli's Walls - 2003, FLAC (tracks+.cue), lossless

(Avant-Garde, Modern Free, ECM) Louis Sclavis (w/ Vincent Courtois, Mederic Collignon, Hasse Poulsen) - Napoli's Walls - 2003, FLAC (tracks+.cue), lossless
Треклист:
Louis Sclavis / Napoli's Walls
Жанр: Avant-Garde, Modern Free
Страна-производитель диска: Germany
Год издания: 2003
Издатель (лейбл): ECM
Номер по каталогу: 1857
Аудиокодек: FLAC (*.flac)
Тип рипа: tracks+.cue
Битрейт аудио: lossless
Продолжительность: 1:00:07
Источник (релизер): я
Наличие сканов в содержимом раздачи: да
Треклист:
01. Colleur de nuit 10:39
02. Napoli’s Walls 7:22
03. Mercè 3:03
04. Kennedy in Napoli 6:30
05. Divinazione moderna I 3:34
06. Divinazione moderna II 3:36
07. Guetteur d’inaperçu 8:23
08. Les Apparences 4:39
09. Porta segreta 5:08
10. Il disegno smangiato d’un uomo 7:12
All compositions by Louis Sclavis except « Porta segreta » by Vincent Courtois.
Recorded December 2002 at Studios La Buissonne, Pernes-les-Fontaines, France.
Louis Sclavis – Clarinet, Bass Clarinet, Soprano and Baritone Saxophones
Vincent Courtois – Cello, Electronics
Médéric Collignon – Pocket Trumpet, Voices, Horn, Percussion, Electronics
Hasse Poulsen – Guitar
 
Лог создания рипа
Exact Audio Copy V1.0 beta 3 from 29. August 2011
EAC extraction logfile from 9. November 2013, 13:53
Louis Sclavis / Napoli's Walls
Used drive : SlimtypeeNAU508 5 Adapter: 1 ID: 0
Read mode : Secure
Utilize accurate stream : Yes
Defeat audio cache : Yes
Make use of C2 pointers : No
Read offset correction : 6
Overread into Lead-In and Lead-Out : No
Fill up missing offset samples with silence : Yes
Delete leading and trailing silent blocks : No
Null samples used in CRC calculations : Yes
Used interface : Native Win32 interface for Win NT & 2000
Gap handling : Appended to previous track
Used output format : User Defined Encoder
Selected bitrate : 768 kBit/s
Quality : High
Add ID3 tag : No
Command line compressor : C:\Program Files (x86)\Exact Audio Copy\Flac\flac.exe
Additional command line options : -8 -V -T "ARTIST=%artist%" -T "TITLE=%title%" -T "ALBUM=%albumtitle%" -T "DATE=%year%" -T "TRACKNUMBER=%tracknr%" -T "GENRE=%genre%" -T "PERFORMER=%albuminterpret%" -T "COMPOSER=%composer%" %haslyrics%--tag-from-file=LYRICS="%lyricsfile%"%haslyrics% -T "ALBUMARTIST=%albumartist%" -T "DISCNUMBER=%cdnumber%" -T "TOTALDISCS=%totalcds%" -T "TOTALTRACKS=%numtracks%" -T "COMMENT=%comment%" %source% -o %dest%
TOC of the extracted CD
Track | Start | Length | Start sector | End sector
---------------------------------------------------------
1 | 0:00.00 | 10:38.45 | 0 | 47894
2 | 10:38.45 | 7:22.25 | 47895 | 81069
3 | 18:00.70 | 3:03.28 | 81070 | 94822
4 | 21:04.23 | 6:29.72 | 94823 | 124069
5 | 27:34.20 | 3:34.29 | 124070 | 140148
6 | 31:08.49 | 3:35.71 | 140149 | 156344
7 | 34:44.45 | 8:23.02 | 156345 | 194071
8 | 43:07.47 | 4:39.28 | 194072 | 215024
9 | 47:47.00 | 5:07.50 | 215025 | 238099
10 | 52:54.50 | 7:12.32 | 238100 | 270531
Track 1
Filename C:\EAC rips\01 - Colleur de nuit.wav
Pre-gap length 0:00:02.00
Peak level 100.0 %
Extraction speed 2.6 X
Track quality 100.0 %
Test CRC 06E361CE
Copy CRC 06E361CE
Accurately ripped (confidence 14) [473B36F8] (AR v2)
Copy OK
Track 2
Filename C:\EAC rips\02 - Napoli's Walls.wav
Pre-gap length 0:00:02.67
Peak level 99.9 %
Extraction speed 3.0 X
Track quality 100.0 %
Test CRC 721FDAAF
Copy CRC 721FDAAF
Accurately ripped (confidence 15) [19D39582] (AR v2)
Copy OK
Track 3
Filename C:\EAC rips\03 - Mercè.wav
Pre-gap length 0:00:04.08
Peak level 88.3 %
Extraction speed 2.9 X
Track quality 100.0 %
Test CRC ED3432BE
Copy CRC ED3432BE
Accurately ripped (confidence 15) [66F26701] (AR v2)
Copy OK
Track 4
Filename C:\EAC rips\04 - Kennedy in Napoli.wav
Peak level 99.9 %
Extraction speed 3.4 X
Track quality 100.0 %
Test CRC 4ADACF77
Copy CRC 4ADACF77
Accurately ripped (confidence 15) [2D65BEA1] (AR v2)
Copy OK
Track 5
Filename C:\EAC rips\05 - Divinazione moderna I.wav
Pre-gap length 0:00:04.08
Peak level 84.0 %
Extraction speed 3.3 X
Track quality 100.0 %
Test CRC D771E427
Copy CRC D771E427
Accurately ripped (confidence 15) [436B9A5B] (AR v2)
Copy OK
Track 6
Filename C:\EAC rips\06 - Divinazione moderna II.wav
Peak level 83.9 %
Extraction speed 3.5 X
Track quality 100.0 %
Test CRC 96F68DF5
Copy CRC 96F68DF5
Accurately ripped (confidence 15) [2285AAB1] (AR v2)
Copy OK
Track 7
Filename C:\EAC rips\07 - Guetteur d'inaperçu.wav
Pre-gap length 0:00:05.39
Peak level 99.9 %
Extraction speed 4.0 X
Track quality 100.0 %
Test CRC 39CFE4EF
Copy CRC 39CFE4EF
Accurately ripped (confidence 14) [84AAB18F] (AR v2)
Copy OK
Track 8
Filename C:\EAC rips\08 - Les Apparences.wav
Pre-gap length 0:00:05.20
Peak level 99.3 %
Extraction speed 4.0 X
Track quality 100.0 %
Test CRC 3F9E8909
Copy CRC 3F9E8909
Accurately ripped (confidence 15) [951B53BF] (AR v2)
Copy OK
Track 9
Filename C:\EAC rips\09 - Porta segreta.wav
Peak level 99.9 %
Extraction speed 4.2 X
Track quality 100.0 %
Test CRC 0B5C151B
Copy CRC 0B5C151B
Accurately ripped (confidence 14) [FF5E2B34] (AR v2)
Copy OK
Track 10
Filename C:\EAC rips\10 - Il disegno smangiato d'un uomo.wav
Pre-gap length 0:00:04.08
Peak level 99.4 %
Extraction speed 4.5 X
Track quality 100.0 %
Test CRC 7E1D6A96
Copy CRC 7E1D6A96
Accurately ripped (confidence 14) [D5DCE9AF] (AR v2)
Copy OK
All tracks accurately ripped
No errors occurred
End of status report
---- CUETools DB Plugin V2.1.4
[CTDB TOCID: MRAXNR1F7VY2Y6DvIjIWLqhuuy0-] found
Submit result: MRAXNR1F7VY2Y6DvIjIWLqhuuy0- has been confirmed
Track | CTDB Status
1 | (10/10) Accurately ripped
2 | (10/10) Accurately ripped
3 | (10/10) Accurately ripped
4 | (10/10) Accurately ripped
5 | (10/10) Accurately ripped
6 | (10/10) Accurately ripped
7 | (10/10) Accurately ripped
8 | (10/10) Accurately ripped
9 | (10/10) Accurately ripped
10 | (10/10) Accurately ripped
==== Log checksum A21E1C410DF2B4FC1E1C2DE32B2799CA99F78AFB6B821CA8DB61638D74EB0DD4 ====
 
Содержание индексной карты (.CUE)
REM GENRE Jazz
REM DATE 2003
REM DISCID 9A0E170A
REM COMMENT "ExactAudioCopy v1.0b3"
PERFORMER "Louis Sclavis"
TITLE "Napoli's Walls"
FILE "01 - Colleur de nuit.wav" WAVE
TRACK 01 AUDIO
TITLE "Colleur de nuit"
PERFORMER "Louis Sclavis"
INDEX 01 00:00:00
TRACK 02 AUDIO
TITLE "Napoli's Walls"
PERFORMER "Louis Sclavis"
INDEX 00 10:35:53
FILE "02 - Napoli's Walls.wav" WAVE
INDEX 01 00:00:00
TRACK 03 AUDIO
TITLE "Mercè"
PERFORMER "Louis Sclavis"
INDEX 00 07:18:17
FILE "03 - Mercè.wav" WAVE
INDEX 01 00:00:00
FILE "04 - Kennedy in Napoli.wav" WAVE
TRACK 04 AUDIO
TITLE "Kennedy in Napoli"
PERFORMER "Louis Sclavis"
INDEX 01 00:00:00
TRACK 05 AUDIO
TITLE "Divinazione moderna I"
PERFORMER "Louis Sclavis"
INDEX 00 06:25:64
FILE "05 - Divinazione moderna I.wav" WAVE
INDEX 01 00:00:00
FILE "06 - Divinazione moderna II.wav" WAVE
TRACK 06 AUDIO
TITLE "Divinazione moderna II"
PERFORMER "Louis Sclavis"
INDEX 01 00:00:00
TRACK 07 AUDIO
TITLE "Guetteur d'inaperçu"
PERFORMER "Louis Sclavis"
INDEX 00 03:30:32
FILE "07 - Guetteur d'inaperçu.wav" WAVE
INDEX 01 00:00:00
TRACK 08 AUDIO
TITLE "Les Apparences"
PERFORMER "Louis Sclavis"
INDEX 00 08:17:57
FILE "08 - Les Apparences.wav" WAVE
INDEX 01 00:00:00
FILE "09 - Porta segreta.wav" WAVE
TRACK 09 AUDIO
TITLE "Porta segreta"
PERFORMER "Louis Sclavis"
INDEX 01 00:00:00
TRACK 10 AUDIO
TITLE "Il disegno smangiato d'un uomo"
PERFORMER "Louis Sclavis"
INDEX 00 05:03:42
FILE "10 - Il disegno smangiato d'un uomo.wav" WAVE
INDEX 01 00:00:00
Any questions -> support@pro-jazz.com. По всем вопросам пишите -> support@pro-jazz.com
20:39
165
Нет комментариев. Ваш будет первым!