Поиск

(Avant-Garde Jazz, Nine Winds) The Vinny Golia Octet - Low And Inside; (Close Call Anyway...) Music For Baritone Saxophone - 2009, FLAC (tracks+.cue), lossless

(Avant-Garde Jazz, Nine Winds) The Vinny Golia Octet - Low And Inside; (Close Call Anyway...) Music For Baritone Saxophone - 2009, FLAC (tracks+.cue), lossless
The Vinny Golia Octet / Low And Inside; (Close Call Anyway...) Music For Baritone Saxophone
Жанр: Avant-Garde Jazz, Nine Winds
Страна-производитель диска: US
Год издания: 2009
Издатель (лейбл): 9 Winds Records
Номер по каталогу: NWCD0299
Страна: US
Аудиокодек: FLAC (*.flac)
Тип рипа: tracks+.cue
Битрейт аудио: lossless
Продолжительность: 75:31
Источник (релизер): свой фирменный диск
Наличие сканов в содержимом раздачи:
Треклист:
1. The Return Of The Post-Marathon Man
2. Prolouge
3. Mr & Mrs Sam Wells Check Into The Hotel In Bombay
4. You Don't Like Beethoven
5. And These People Drive Too! (Subterranean)
6. Velature
7. Answer; Coined The Word Boheeka
8. Attack Of The People Named Frank Johnson
9. An Anticipation Of Only Catastrophe
10. Swing Plane
 
Лог создания рипа
Exact Audio Copy V1.0 beta 3 from 29. August 2011
EAC extraction logfile from 13. November 2013, 23:04
The Vinny Golia Octet / Low And Inside; (Close Call Anyway...) Music For Baritone Saxophone
Used drive : PIONEER DVD-RW DVR-115D Adapter: 0 ID: 0
Read mode : Secure
Utilize accurate stream : Yes
Defeat audio cache : Yes
Make use of C2 pointers : No
Read offset correction : 48
Overread into Lead-In and Lead-Out : No
Fill up missing offset samples with silence : Yes
Delete leading and trailing silent blocks : No
Null samples used in CRC calculations : Yes
Used interface : Installed external ASPI interface
Gap handling : Appended to previous track
Used output format : User Defined Encoder
Selected bitrate : 896 kBit/s
Quality : High
Add ID3 tag : No
Command line compressor : C:\Program Files\Exact Audio Copy\FLAC\FLAC.EXE
Additional command line options : -6 -V -T "ARTIST=%artist%" -T "TITLE=%title%" -T "ALBUM=%albumtitle%" -T "DATE=%year%" -T "TRACKNUMBER=%tracknr%" -T "GENRE=%genre%" -T "COMMENT=%comment%" -T "BAND=%albuminterpret%" -T "COMPOSER=%composer%" %haslyrics%--tag-from-file=LYRICS="%lyricsfile%"%haslyrics% -T "DISCNUMBER=%cdnumber%" -T "TOTALDISCS=%totalcds%" -T "TOTALTRACKS=%numtracks%" %hascover%--picture="%coverfile%"%hascover% %source% -o %dest%
TOC of the extracted CD
Track | Start | Length | Start sector | End sector
---------------------------------------------------------
1 | 0:00.00 | 6:53.43 | 0 | 31017
2 | 6:53.43 | 0:59.53 | 31018 | 35495
3 | 7:53.21 | 6:35.54 | 35496 | 65174
4 | 14:29.00 | 8:28.48 | 65175 | 103322
5 | 22:57.48 | 8:19.29 | 103323 | 140776
6 | 31:17.02 | 9:43.25 | 140777 | 184526
7 | 41:00.27 | 9:19.53 | 184527 | 226504
8 | 50:20.05 | 7:42.17 | 226505 | 261171
9 | 58:02.22 | 9:05.74 | 261172 | 302120
10 | 67:08.21 | 8:23.21 | 302121 | 339866
Track 1
Filename D:\zzz\01 - The Return Of The Post-Marathon Man.wav
Pre-gap length 0:00:02.00
Peak level 98.8 %
Extraction speed 3.2 X
Track quality 100.0 %
Test CRC 567FC78F
Copy CRC 567FC78F
Track not present in AccurateRip database
Copy OK
Track 2
Filename D:\zzz\02 - Prolouge.wav
Pre-gap length 0:00:01.34
Peak level 81.5 %
Extraction speed 2.3 X
Track quality 100.0 %
Test CRC DB034693
Copy CRC DB034693
Track not present in AccurateRip database
Copy OK
Track 3
Filename D:\zzz\03 - Mr & Mrs Sam Wells Check Into The Hotel In Bombay.wav
Pre-gap length 0:00:02.16
Peak level 98.8 %
Extraction speed 3.4 X
Track quality 99.9 %
Test CRC 9BD2979E
Copy CRC 9BD2979E
Track not present in AccurateRip database
Copy OK
Track 4
Filename D:\zzz\04 - You Don't Like Beethoven.wav
Pre-gap length 0:00:02.29
Peak level 98.8 %
Extraction speed 3.9 X
Track quality 99.9 %
Test CRC 84EECC99
Copy CRC 84EECC99
Track not present in AccurateRip database
Copy OK
Track 5
Filename D:\zzz\05 - And These People Drive Too! (Subterranean).wav
Pre-gap length 0:00:02.00
Peak level 98.8 %
Extraction speed 4.5 X
Track quality 100.0 %
Test CRC 3D0AE749
Copy CRC 3D0AE749
Track not present in AccurateRip database
Copy OK
Track 6
Filename D:\zzz\06 - Velature.wav
Pre-gap length 0:00:03.22
Peak level 98.8 %
Extraction speed 4.7 X
Track quality 99.9 %
Test CRC 5C412B88
Copy CRC 5C412B88
Track not present in AccurateRip database
Copy OK
Track 7
Filename D:\zzz\07 - Answer; Coined The Word Boheeka.wav
Pre-gap length 0:00:02.00
Peak level 98.8 %
Extraction speed 5.0 X
Track quality 99.9 %
Test CRC BED71CA3
Copy CRC BED71CA3
Track not present in AccurateRip database
Copy OK
Track 8
Filename D:\zzz\08 - Attack Of The People Named Frank Johnson.wav
Pre-gap length 0:00:02.69
Peak level 98.8 %
Extraction speed 5.6 X
Track quality 100.0 %
Test CRC C11D8C0B
Copy CRC C11D8C0B
Track not present in AccurateRip database
Copy OK
Track 9
Filename D:\zzz\09 - An Anticipation Of Only Catastrophe.wav
Pre-gap length 0:00:00.59
Peak level 98.8 %
Extraction speed 5.9 X
Track quality 100.0 %
Test CRC 9AA40C30
Copy CRC 9AA40C30
Track not present in AccurateRip database
Copy OK
Track 10
Filename D:\zzz\10 - Swing Plane.wav
Pre-gap length 0:00:02.00
Peak level 98.8 %
Extraction speed 1.0 X
Track quality 100.0 %
Test CRC C70EEFCD
Copy CRC C70EEFCD
Track not present in AccurateRip database
Copy OK
None of the tracks are present in the AccurateRip database
No errors occurred
End of status report
==== Log checksum E970C02DB9A6DE051315F8D10200CE3617F3E8ADE06D830CA18C3A12984AA666 ====
 
Содержание индексной карты (.CUE)
REM GENRE "Avant-Garde Jazz"
REM DATE 2009
REM DISCID 8811B30A
REM COMMENT "ExactAudioCopy v1.0b3"
PERFORMER "The Vinny Golia Octet"
TITLE "Low And Inside; (Close Call Anyway...) Music For Baritone Saxophone"
FILE "01 - The Return Of The Post-Marathon Man.wav" WAVE
TRACK 01 AUDIO
TITLE "The Return Of The Post-Marathon Man"
PERFORMER "The Vinny Golia Octet"
FLAGS DCP
INDEX 01 00:00:00
TRACK 02 AUDIO
TITLE "Prolouge"
PERFORMER "The Vinny Golia Octet"
FLAGS DCP
INDEX 00 06:52:09
FILE "02 - Prolouge.wav" WAVE
INDEX 01 00:00:00
TRACK 03 AUDIO
TITLE "Mr & Mrs Sam Wells Check Into The Hotel In Bombay"
PERFORMER "The Vinny Golia Octet"
FLAGS DCP
INDEX 00 00:57:37
FILE "03 - Mr & Mrs Sam Wells Check Into The Hotel In Bombay.wav" WAVE
INDEX 01 00:00:00
TRACK 04 AUDIO
TITLE "You Don't Like Beethoven"
PERFORMER "The Vinny Golia Octet"
FLAGS DCP
INDEX 00 06:33:25
FILE "04 - You Don't Like Beethoven.wav" WAVE
INDEX 01 00:00:00
TRACK 05 AUDIO
TITLE "And These People Drive Too! (Subterranean)"
PERFORMER "The Vinny Golia Octet"
FLAGS DCP
INDEX 00 08:26:48
FILE "05 - And These People Drive Too! (Subterranean).wav" WAVE
INDEX 01 00:00:00
TRACK 06 AUDIO
TITLE "Velature"
PERFORMER "The Vinny Golia Octet"
FLAGS DCP
INDEX 00 08:16:07
FILE "06 - Velature.wav" WAVE
INDEX 01 00:00:00
TRACK 07 AUDIO
TITLE "Answer; Coined The Word Boheeka"
PERFORMER "The Vinny Golia Octet"
FLAGS DCP
INDEX 00 09:41:25
FILE "07 - Answer; Coined The Word Boheeka.wav" WAVE
INDEX 01 00:00:00
TRACK 08 AUDIO
TITLE "Attack Of The People Named Frank Johnson"
PERFORMER "The Vinny Golia Octet"
FLAGS DCP
INDEX 00 09:16:59
FILE "08 - Attack Of The People Named Frank Johnson.wav" WAVE
INDEX 01 00:00:00
TRACK 09 AUDIO
TITLE "An Anticipation Of Only Catastrophe"
PERFORMER "The Vinny Golia Octet"
FLAGS DCP
INDEX 00 07:41:33
FILE "09 - An Anticipation Of Only Catastrophe.wav" WAVE
INDEX 01 00:00:00
TRACK 10 AUDIO
TITLE "Swing Plane"
PERFORMER "The Vinny Golia Octet"
FLAGS DCP
INDEX 00 09:03:74
FILE "10 - Swing Plane.wav" WAVE
INDEX 01 00:00:00
 
Лог проверки качества
d:\>d:\aucdtect -d/-m0 d:\zzz\*.wav
auCDtect: CD records authenticity detector, version 0.8.2
Copyright (c) 2004 Oleg Berngardt. All rights reserved.
Copyright (c) 2004 Alexander Djourik. All rights reserved.
------------------------------------------------------------
Processing file: [01. The Return Of The Post-Marathon Man.wav]
------------------------------------------------------------
This track looks like CDDA with probability 100%
------------------------------------------------------------
Processing file: [02. Prolouge.wav]
------------------------------------------------------------
This track looks like CDDA with probability 100%
------------------------------------------------------------
Processing file: [03. Mr & Mrs Sam Wells Check Into The Hotel In Bombay.wav]
------------------------------------------------------------
This track looks like CDDA with probability 100%
------------------------------------------------------------
Processing file: [04. You Don't Like Beethoven.wav]
------------------------------------------------------------
This track looks like CDDA with probability 100%
------------------------------------------------------------
Processing file: [05. And These People Drive Too! (Subterranean).wav]
------------------------------------------------------------
This track looks like CDDA with probability 100%
------------------------------------------------------------
Processing file: [06. Velature.wav]
------------------------------------------------------------
This track looks like CDDA with probability 100%
------------------------------------------------------------
Processing file: [07. Answer; Coined The Word Boheeka.wav]
------------------------------------------------------------
This track looks like CDDA with probability 100%
------------------------------------------------------------
Processing file: [08. Attack Of The People Named Frank Johnson.wav]
------------------------------------------------------------
This track looks like CDDA with probability 100%
------------------------------------------------------------
Processing file: [09. An Anticipation Of Only Catastrophe.wav]
------------------------------------------------------------
This track looks like CDDA with probability 100%
------------------------------------------------------------
Processing file: [10. Swing Plane.wav]
------------------------------------------------------------
This track looks like CDDA with probability 100%
------------------------------------------------------------
Final Conclusion:
------------------------------------------------------------
These tracks looks like CDDA with probability 100%
Доп. информация:
 
Album Info & AAJ Review
All compositions and arrangements by Vinny Golia
Art + Design: Kio Griffith
Recorded by Jon Baffa 5/20/2009, Roy O Disney Hall, California Institute Of The Arts, Valencia, California
Mixed by Jon Baffa & Vinny Golia, TV Tray Studios, 5/17&29/2009, Simi Valley, California
Woodwind multi-instrumentalist Vinny Golia has been both the beacon and a touchstone for the West Coast free improvising community, particularly in Los Angeles, for over 30 years. Golia started his Nine Winds label in 1977, as a vehicle for distributing his own music, then expanded its mission statement around 1980 to document music from Canada to Mexico that wasn't being heard. Some 200 releases later, Nine Winds is still on the cutting edge, still exposing adventurous musicians to discerning listeners.
Golia has been making terrific records for eons, but even amongst his excellent catalog, Music For Baritone Saxophone is a highlight achievement.
For starters, the octet assembled is loaded with virtuoso players interpreting very creative music with exquisite arrangements. Somehow Golia has managed to produce one of his most accessible records in years without compromising a bit on his originality.
Due to a snafu in the CD printing, e-flat and bass clarinetist Brian Walsh was left off the octet personnel in the liner notes; unfortunate, because he's one of the reasons this disc works so well. The brass section of Daniel Rosenboom on trumpet and George McMullen on trombone are key—especially Rosenboom, who gets the lion-share of solo space. An intriguing component is Alex Noyce on electric guitar. He favors a John McLaughlin type overdriven tone on much of this album, circa Inner Mounting Flame (Columbia, 1970). He knows how to ramp up the tension, and, amazingly, his rock-ish timbre fits perfectly with the horns. Gavin Templeton on alto saxophone gets a good deal of improv time—he's got an updated sense of Eric Dolphy in his performances. The veteran Ken Filiano is never less than compelling on doublebass, and Matt Mayhall on drums is fiery and disruptive in the best possible sense—he keeps this music surging forward.
Golia himself redefines the notion of what is possible on the baritone saxophone, and, on several cuts, takes that one step further on his custom-made Tubax, a refinement of the contrabass saxophone. His solos on either one have all the fluidity and acceleration of much smaller horns—there's never an urge to describe either as "lumbering," because in his hands they are not. On "And These People Drive Too!" Golia's Tubax hits the ground running with long, quicksilver lines that dart from low to high with astonishing precision The full band enters at about the 4:00 mark, after a crisp drum solo. Rosenboom's, tart, clarion-call trumpet emerges, expands, then yields to a distorted, caterwauling guitar solo. Throughout, the horn ensemble wraps Anthony Braxton-esque counterpoint around the soloists.
Ever imagine what saxophonists John Coltrane or Dolphy might have sounded like on the baritone? "Answer" and "Coined The Word Boheeka," with it's loping bass vamp and rollicking drums, set the stage for a manic Golia demonstration. Like many of the tunes on this disc, there is an episodic feel at work, with "Answer" settling into a rock beat toward its conclusion, after exploring several moods and themes.
Golia is very generous with the solo space, yielding to the individual genius of his sidemen often. On "An Anticipation Of Only Catastrophe," Templeton's alto leads off with a swirling, squealing statement followed by an amazing bass clarinet cadenza from Walsh, racing though the registers with equal gravitas. Noyce cycles around waves of skronk before settling in with wicked distortion over Mayhall's asymmetrical rolls and snare drum explosions.
Trombonist McMullen gets a nice spot on "Return Of The Post Marathon Man," soloing simultaneously with Noyce's overdriven guitar. Golia's baritone sax soars above dark clouds of drawn horn textures and the constantly surging drums, before unveiling "Prologue," a short piece featuring Rosenboom alone.
Balance is a key to the success of this impressive effort. The writing and arranging for the group is breathtaking in its scope, as a result the octet often sounds much larger, as on the finale, "Swing Plane," which has the horns swinging hard in a peek-a-boo dynamic, opening up for a show-stopping arco solo from Filiano, (think Paul Chambers meets Barry Guy), and razor sharp features for Rosenboom, Walsh and Noyce.
Anyone who appreciates tight, creative ensemble work and virtuosic soloing should give Music For Baritone Saxophone a listen. Golia is something of a baseball enthusiast, hence the album subtitle: Low and Inside; (close call anyway...).To carry the baseball metaphor one step further, on this masterpiece, Golia swings for the fences...and clears them.
 
Состав
Vinny Golia: baritone saxophone & tubax (contrabass saxophone)
Gavin Templeton: alto saxophone
Brian Walsh: bass clarinet (uncredited on CD)
Dan Rosenboom: trumpet
George McMullen: trombone & bass trombone
Alex Noyce: electric guitar & effects
Ken Filiano: acoustic bass & effects
Matt Mayhall: drums
20:34
321
Нет комментариев. Ваш будет первым!