Вы используете незарегистрированную версию компонента "Вкладки"!

Поиск

(Free Jazz, Avant-Garde Jazz, Nine Winds) Paul Smoker & Damon Short Quintet - No Stock Options - 2007, FLAC (tracks+.cue), lossless

(Free Jazz, Avant-Garde Jazz, Nine Winds) Paul Smoker & Damon Short Quintet - No Stock Options - 2007, FLAC (tracks+.cue), lossless
Треклист:
Paul Smoker & Damon Short Quintet / No Stock Options
Жанр: Free Jazz, Avant-Garde Jazz, Nine Winds
Страна-производитель диска: US
Год издания: 2007
Издатель (лейбл): 9 Winds Records
Номер по каталогу: NWCD0291
Страна: US
Аудиокодек: FLAC (*.flac)
Тип рипа: tracks+.cue
Битрейт аудио: lossless
Продолжительность: 69:38
Источник (релизер): свой фирменный диск
Наличие сканов в содержимом раздачи:
Треклист:
1. To The Quick 12:23
2. No Stock Options 14:58
3. Goodbye, David 7:36
4. Obsidian 20:22
5. Towers 8:03
6. Top Of The Line 5:52
 
Лог создания рипа
Exact Audio Copy V1.0 beta 3 from 29. August 2011
EAC extraction logfile from 12. November 2013, 20:58
Paul Smoker & Damon Short Quintet / No Stock Options
Used drive : PIONEER DVD-RW DVR-115D Adapter: 0 ID: 0
Read mode : Secure
Utilize accurate stream : Yes
Defeat audio cache : Yes
Make use of C2 pointers : No
Read offset correction : 48
Overread into Lead-In and Lead-Out : No
Fill up missing offset samples with silence : Yes
Delete leading and trailing silent blocks : No
Null samples used in CRC calculations : Yes
Used interface : Installed external ASPI interface
Gap handling : Appended to previous track
Used output format : User Defined Encoder
Selected bitrate : 896 kBit/s
Quality : High
Add ID3 tag : No
Command line compressor : C:\Program Files\Exact Audio Copy\FLAC\FLAC.EXE
Additional command line options : -6 -V -T "ARTIST=%artist%" -T "TITLE=%title%" -T "ALBUM=%albumtitle%" -T "DATE=%year%" -T "TRACKNUMBER=%tracknr%" -T "GENRE=%genre%" -T "COMMENT=%comment%" -T "BAND=%albuminterpret%" -T "COMPOSER=%composer%" %haslyrics%--tag-from-file=LYRICS="%lyricsfile%"%haslyrics% -T "DISCNUMBER=%cdnumber%" -T "TOTALDISCS=%totalcds%" -T "TOTALTRACKS=%numtracks%" %hascover%--picture="%coverfile%"%hascover% %source% -o %dest%
TOC of the extracted CD
Track | Start | Length | Start sector | End sector
---------------------------------------------------------
1 | 0:00.00 | 12:27.29 | 0 | 56053
2 | 12:27.29 | 15:02.14 | 56054 | 123717
3 | 27:29.43 | 7:41.05 | 123718 | 158297
4 | 35:10.48 | 20:27.20 | 158298 | 250342
5 | 55:37.68 | 8:08.26 | 250343 | 286968
6 | 63:46.19 | 5:51.71 | 286969 | 313364
Track 1
Filename D:\zzz\01 - To The Quick.wav
Pre-gap length 0:00:02.00
Peak level 100.0 %
Extraction speed 5.7 X
Track quality 100.0 %
Test CRC 814B1AFC
Copy CRC 814B1AFC
Accurately ripped (confidence 1) [DFFAE11B] (AR v1)
Copy OK
Track 2
Filename D:\zzz\02 - No Stock Options.wav
Pre-gap length 0:00:05.00
Peak level 99.9 %
Extraction speed 7.1 X
Track quality 100.0 %
Test CRC 3C33D64B
Copy CRC 3C33D64B
Accurately ripped (confidence 1) [27A36FEA] (AR v1)
Copy OK
Track 3
Filename D:\zzz\03 - Goodbye, David.wav
Pre-gap length 0:00:05.00
Peak level 89.1 %
Extraction speed 7.7 X
Track quality 100.0 %
Test CRC FF16C117
Copy CRC FF16C117
Accurately ripped (confidence 1) [73A44A79] (AR v1)
Copy OK
Track 4
Filename D:\zzz\04 - Obsidian.wav
Pre-gap length 0:00:05.00
Peak level 100.0 %
Extraction speed 9.0 X
Track quality 100.0 %
Test CRC 1A7E1217
Copy CRC 1A7E1217
Accurately ripped (confidence 1) [36A94037] (AR v1)
Copy OK
Track 5
Filename D:\zzz\05 - Towers.wav
Pre-gap length 0:00:05.00
Peak level 99.9 %
Extraction speed 8.8 X
Track quality 99.9 %
Test CRC DD0020D0
Copy CRC DD0020D0
Accurately ripped (confidence 1) [7F2DDE4C] (AR v1)
Copy OK
Track 6
Filename D:\zzz\06 - Top Of The Line.wav
Pre-gap length 0:00:05.00
Peak level 99.9 %
Extraction speed 8.7 X
Track quality 99.9 %
Test CRC 323ADF2F
Copy CRC 323ADF2F
Accurately ripped (confidence 1) [9F13706E] (AR v1)
Copy OK
All tracks accurately ripped
No errors occurred
End of status report
==== Log checksum 6A6F6AB6AD96A886DB5CE50819BD0F8643244E4DD8106AE556E4F08F46F9ABEE ====
 
Содержание индексной карты (.CUE)
REM GENRE "Free Jazz"
REM DATE 2007
REM DISCID 50105206
REM COMMENT "ExactAudioCopy v1.0b3"
PERFORMER "Paul Smoker & Damon Short Quintet"
TITLE "No Stock Options"
FILE "01 - To The Quick.wav" WAVE
TRACK 01 AUDIO
TITLE "To The Quick"
PERFORMER "Paul Smoker & Damon Short Quintet"
FLAGS DCP
INDEX 01 00:00:00
TRACK 02 AUDIO
TITLE "No Stock Options"
PERFORMER "Paul Smoker & Damon Short Quintet"
FLAGS DCP
INDEX 00 12:22:29
FILE "02 - No Stock Options.wav" WAVE
INDEX 01 00:00:00
TRACK 03 AUDIO
TITLE "Goodbye, David"
PERFORMER "Paul Smoker & Damon Short Quintet"
FLAGS DCP
INDEX 00 14:57:14
FILE "03 - Goodbye, David.wav" WAVE
INDEX 01 00:00:00
TRACK 04 AUDIO
TITLE "Obsidian"
PERFORMER "Paul Smoker & Damon Short Quintet"
FLAGS DCP
INDEX 00 07:36:05
FILE "04 - Obsidian.wav" WAVE
INDEX 01 00:00:00
TRACK 05 AUDIO
TITLE "Towers"
PERFORMER "Paul Smoker & Damon Short Quintet"
FLAGS DCP
INDEX 00 20:22:20
FILE "05 - Towers.wav" WAVE
INDEX 01 00:00:00
TRACK 06 AUDIO
TITLE "Top Of The Line"
PERFORMER "Paul Smoker & Damon Short Quintet"
FLAGS DCP
INDEX 00 08:03:26
FILE "06 - Top Of The Line.wav" WAVE
INDEX 01 00:00:00
 
Лог проверки качества
d:\>d:\aucdtect -d/-m0 d:\zzz\*.wav
auCDtect: CD records authenticity detector, version 0.8.2
Copyright (c) 2004 Oleg Berngardt. All rights reserved.
Copyright (c) 2004 Alexander Djourik. All rights reserved.
------------------------------------------------------------
Processing file: [01. To The Quick.wav]
------------------------------------------------------------
This track looks like CDDA with probability 99%
------------------------------------------------------------
Processing file: [02. No Stock Options.wav]
------------------------------------------------------------
This track looks like CDDA with probability 100%
------------------------------------------------------------
Processing file: [03. Goodbye, David.wav]
------------------------------------------------------------
This track looks like CDDA with probability 100%
------------------------------------------------------------
Processing file: [04. Obsidian.wav]
------------------------------------------------------------
This track looks like CDDA with probability 100%
------------------------------------------------------------
Processing file: [05. Towers.wav]
------------------------------------------------------------
This track looks like CDDA with probability 100%
------------------------------------------------------------
Processing file: [06. Top Of The Line.wav]
------------------------------------------------------------
This track looks like CDDA with probability 99%
------------------------------------------------------------
Final Conclusion:
------------------------------------------------------------
These tracks looks like CDDA with probability 100%
Доп. информация:
 
Album Info & Cadence Building Magazine Review
(Smoker) - 1,3,6
(Short) - 2,4,5
Live 2-track recording at East End Studio, Rochester NY, July 13-14, 2004
Engineer: David Baker (2,4)
Additional engineering: Jeremy DeGroat, Brian Aloisio
Editing: Damon Short at Beamish Studios, Chicago, Fall 2004
Session photos: Brian Aloisio
Photo of David Baker by John Abbott
Produced by Damon Short & Paul Smoker
Executive producer: Vinny Golia
Art + Design: Kio Griffith
"Each of these players is an inventive soloist in his own right, the formula clicks. Smoker dives in with his energized torrential flurries and keen sense of pace and form. Shultz is a particularly effective asset on his rarely-heard bass trumpet. With the tonal range of a trombone he is able to fly across the themes with a sharp-edged phrasing accentuated by burrs and smears. Burdelik dips in to Bop phrasing and pushes it toward freedom with lines that careen along drawing economically on the overdriven vocabulary of Free playing. He can also be quite lyrical, like his bass clarinet playing on Smoker's "Goodbye, David", a tribute to recording engineer David Baker. Filiano is one of the most underrated bass players around these days. His burly tone and propulsive drive locks in with Short's caterwauling drums to provide an infectious Free pulse. He is an inspired soloist as well. Short's limber freedom and open sense of swing is one of the defining elements of this session. The pieces range from hyper-speed intensity to the open freedom of the 20-minute "Obsidian", full of unhurried collective development and featuring a particularly plangent solo by Filiano. This document is further proof of the singular visions of the two leaders and well worth searching out." - Michael Rosenstein, Cadence, Oct-Dec 2008, p. 230
 
Состав
Paul Smoker: trumpet
Chuck Burdelik: woodwinds
Ryan Shultz: bass trumpet
Ken Filiano: bass
Damon Short: drums
По всем вопросам пишите личное сообщение пользователю M0p94ok.
20:33
176
Нет комментариев. Ваш будет первым!