Вы используете незарегистрированную версию компонента "Вкладки"!

Поиск

(Free Jazz, Avant-Garde Jazz, Nine Winds) The Vinny Golia Sextet - Abstractions And Retrocausalities - 2011, FLAC (tracks+.cue), lossless

(Free Jazz, Avant-Garde Jazz, Nine Winds) The Vinny Golia Sextet - Abstractions And Retrocausalities - 2011, FLAC (tracks+.cue), lossless
Треклист:
The Vinny Golia Sextet / Abstractions And Retrocausalities
Жанр: Free Jazz, Avant-Garde Jazz, Nine Winds
Страна-производитель диска: US
Год издания: 2011
Издатель (лейбл): 9 Winds Records
Номер по каталогу: NWCD0309
Страна: US
Аудиокодек: FLAC (*.flac)
Тип рипа: tracks+.cue
Битрейт аудио: lossless
Продолжительность: 76:28
Источник (релизер): свой фирменный диск
Наличие сканов в содержимом раздачи:
Треклист:
1. Why Would A Whale Act Like This? (God Help Us All... Another SyFY Channel Original Movie?) 5:38
2. Spare The Rod, Spoil The Series (Silver At It's Best) 0:56
3. Photoshoot, One, Two, 3:57
4. BTSO (Big Time Secret Organization) 9:03
5. Spare The Rod, Spoil The Series (Reprise) And His Career In Dance, Is Not Yet Doomed! (Here's Johnny!) 8:05
6. Maboo's Justice (Are You Mocking Me Now?) 9:39
7. Kamikakushi 8:04
8. A Carload Of Trouble 6:46
9. Locked In 8:02
10. Abstroblue (Greetings Fellow Stargazers!) 7:09
11. Full Moon (So Thats A Piano) 7:56
 
Лог создания рипа
Exact Audio Copy V1.0 beta 3 from 29. August 2011
EAC extraction logfile from 15. November 2013, 17:08
The Vinny Golia Sextet / Abstractions And Retrocausalities
Used drive : PIONEER DVD-RW DVR-115D Adapter: 0 ID: 0
Read mode : Secure
Utilize accurate stream : Yes
Defeat audio cache : Yes
Make use of C2 pointers : No
Read offset correction : 48
Overread into Lead-In and Lead-Out : No
Fill up missing offset samples with silence : Yes
Delete leading and trailing silent blocks : No
Null samples used in CRC calculations : Yes
Used interface : Installed external ASPI interface
Gap handling : Appended to previous track
Used output format : User Defined Encoder
Selected bitrate : 896 kBit/s
Quality : High
Add ID3 tag : No
Command line compressor : C:\Program Files\Exact Audio Copy\FLAC\FLAC.EXE
Additional command line options : -6 -V -T "ARTIST=%artist%" -T "TITLE=%title%" -T "ALBUM=%albumtitle%" -T "DATE=%year%" -T "TRACKNUMBER=%tracknr%" -T "GENRE=%genre%" -T "COMMENT=%comment%" -T "BAND=%albuminterpret%" -T "COMPOSER=%composer%" %haslyrics%--tag-from-file=LYRICS="%lyricsfile%"%haslyrics% -T "DISCNUMBER=%cdnumber%" -T "TOTALDISCS=%totalcds%" -T "TOTALTRACKS=%numtracks%" %hascover%--picture="%coverfile%"%hascover% %source% -o %dest%
TOC of the extracted CD
Track | Start | Length | Start sector | End sector
---------------------------------------------------------
1 | 0:00.00 | 5:40.30 | 0 | 25529
2 | 5:40.30 | 0:56.57 | 25530 | 29786
3 | 6:37.12 | 3:58.72 | 29787 | 47708
4 | 10:36.09 | 9:05.34 | 47709 | 88617
5 | 19:41.43 | 8:07.16 | 88618 | 125158
6 | 27:48.59 | 9:41.25 | 125159 | 168758
7 | 37:30.09 | 8:06.04 | 168759 | 205212
8 | 45:36.13 | 6:47.67 | 205213 | 235804
9 | 52:24.05 | 8:02.28 | 235805 | 271982
10 | 60:26.33 | 8:05.19 | 271983 | 308376
11 | 68:31.52 | 7:56.33 | 308377 | 344109
Track 1
Filename D:\zzz\01 - Why Would A Whale Act Like This (God Help Us All!...Another SyFY Channel Original Movie).wav
Pre-gap length 0:00:02.00
Peak level 98.8 %
Extraction speed 5.0 X
Track quality 100.0 %
Test CRC 4B5DBD8E
Copy CRC 4B5DBD8E
Track not present in AccurateRip database
Copy OK
Track 2
Filename D:\zzz\02 - Spare The Rod , Spoil The Series (Silver At It's Best).wav
Pre-gap length 0:00:02.00
Peak level 98.8 %
Extraction speed 2.6 X
Track quality 99.8 %
Test CRC 8A925274
Copy CRC 8A925274
Track not present in AccurateRip database
Copy OK
Track 3
Filename D:\zzz\03 - Photoshoot, One, Two,.wav
Pre-gap length 0:00:00.30
Peak level 98.8 %
Extraction speed 5.4 X
Track quality 100.0 %
Test CRC EC0A5932
Copy CRC EC0A5932
Track not present in AccurateRip database
Copy OK
Track 4
Filename D:\zzz\04 - BTSO (Big Time Secret Organization).wav
Pre-gap length 0:00:02.00
Peak level 98.8 %
Extraction speed 6.1 X
Track quality 99.9 %
Test CRC 24D5C95B
Copy CRC 24D5C95B
Track not present in AccurateRip database
Copy OK
Track 5
Filename D:\zzz\05 - Spare The Rod, Spoil The Series (Reprise) And His Career In Dance, Is Not Yet Doomed! (Here's Johnny!).wav
Pre-gap length 0:00:02.00
Peak level 98.8 %
Extraction speed 7.1 X
Track quality 100.0 %
Test CRC B780EE57
Copy CRC B780EE57
Track not present in AccurateRip database
Copy OK
Track 6
Filename D:\zzz\06 - Maboo's Justice (Are You Mocking Me Now).wav
Pre-gap length 0:00:02.00
Peak level 98.8 %
Extraction speed 7.4 X
Track quality 99.9 %
Test CRC DE9738A3
Copy CRC DE9738A3
Track not present in AccurateRip database
Copy OK
Track 7
Filename D:\zzz\07 - Kamikakushi.wav
Pre-gap length 0:00:02.00
Peak level 98.8 %
Extraction speed 7.7 X
Track quality 99.9 %
Test CRC 7B061B1F
Copy CRC 7B061B1F
Track not present in AccurateRip database
Copy OK
Track 8
Filename D:\zzz\08 - A Carload Of Trouble.wav
Pre-gap length 0:00:02.00
Peak level 98.8 %
Extraction speed 8.5 X
Track quality 100.0 %
Test CRC F83C1603
Copy CRC F83C1603
Track not present in AccurateRip database
Copy OK
Track 9
Filename D:\zzz\09 - Locked In.wav
Pre-gap length 0:00:02.00
Peak level 98.8 %
Extraction speed 8.5 X
Track quality 99.9 %
Test CRC 8666CCF9
Copy CRC 8666CCF9
Track not present in AccurateRip database
Copy OK
Track 10
Filename D:\zzz\10 - Abstroblue (Greetings Fellow Stargazers!).wav
Pre-gap length 0:00:01.00
Peak level 98.8 %
Extraction speed 9.5 X
Track quality 100.0 %
Test CRC 6DAF4339
Copy CRC 6DAF4339
Track not present in AccurateRip database
Copy OK
Track 11
Filename D:\zzz\11 - Full Moon (So Thats A Piano).wav
Pre-gap length 0:00:02.00
Peak level 98.8 %
Extraction speed 5.8 X
Track quality 99.9 %
Test CRC 26E3FE9D
Copy CRC 26E3FE9D
Track not present in AccurateRip database
Copy OK
None of the tracks are present in the AccurateRip database
No errors occurred
End of status report
==== Log checksum 7C9A89DF3CF153AFB9A8F0A3209BA1068D33A573EBCB76B5A771D7D7A4349F02 ====
 
Содержание индексной карты (.CUE)
REM GENRE "Avant-Garde Jazz"
REM DATE 2011
REM DISCID 9511EC0B
REM COMMENT "ExactAudioCopy v1.0b3"
PERFORMER "The Vinny Golia Sextet"
TITLE "Abstractions And Retrocausalities"
FILE "01 - Why Would A Whale Act Like This (God Help Us All!...Another SyFY Channel Original Movie).wav" WAVE
TRACK 01 AUDIO
TITLE "Why Would A Whale Act Like This? (God Help Us All!...Another SyFY Channel Ori..."
PERFORMER "The Vinny Golia Sextet"
FLAGS DCP
INDEX 01 00:00:00
TRACK 02 AUDIO
TITLE "Spare The Rod , Spoil The Series (Silver At It's Best)"
PERFORMER "The Vinny Golia Sextet"
FLAGS DCP
INDEX 00 05:38:30
FILE "02 - Spare The Rod , Spoil The Series (Silver At It's Best).wav" WAVE
INDEX 01 00:00:00
TRACK 03 AUDIO
TITLE "Photoshoot, One, Two,"
PERFORMER "The Vinny Golia Sextet"
FLAGS DCP
INDEX 00 00:56:27
FILE "03 - Photoshoot, One, Two,.wav" WAVE
INDEX 01 00:00:00
TRACK 04 AUDIO
TITLE "BTSO (Big Time Secret Organization)"
PERFORMER "The Vinny Golia Sextet"
FLAGS DCP
INDEX 00 03:56:72
FILE "04 - BTSO (Big Time Secret Organization).wav" WAVE
INDEX 01 00:00:00
TRACK 05 AUDIO
TITLE "Spare The Rod, Spoil The Series (Reprise) And His Career In Dance, Is Not Yet..."
PERFORMER "The Vinny Golia Sextet"
FLAGS DCP
INDEX 00 09:03:34
FILE "05 - Spare The Rod, Spoil The Series (Reprise) And His Career In Dance, Is Not Yet Doomed! (Here's Johnny!).wav" WAVE
INDEX 01 00:00:00
TRACK 06 AUDIO
TITLE "Maboo's Justice (Are You Mocking Me Now?)"
PERFORMER "The Vinny Golia Sextet"
FLAGS DCP
INDEX 00 08:05:16
FILE "06 - Maboo's Justice (Are You Mocking Me Now).wav" WAVE
INDEX 01 00:00:00
TRACK 07 AUDIO
TITLE "Kamikakushi "
PERFORMER "The Vinny Golia Sextet"
FLAGS DCP
INDEX 00 09:39:25
FILE "07 - Kamikakushi.wav" WAVE
INDEX 01 00:00:00
TRACK 08 AUDIO
TITLE " A Carload Of Trouble "
PERFORMER "The Vinny Golia Sextet"
FLAGS DCP
INDEX 00 08:04:04
FILE "08 - A Carload Of Trouble.wav" WAVE
INDEX 01 00:00:00
TRACK 09 AUDIO
TITLE "Locked In"
PERFORMER "The Vinny Golia Sextet"
FLAGS DCP
INDEX 00 06:45:67
FILE "09 - Locked In.wav" WAVE
INDEX 01 00:00:00
TRACK 10 AUDIO
TITLE " Abstroblue (Greetings Fellow Stargazers!)"
PERFORMER "The Vinny Golia Sextet"
FLAGS DCP
INDEX 00 08:01:28
FILE "10 - Abstroblue (Greetings Fellow Stargazers!).wav" WAVE
INDEX 01 00:00:00
TRACK 11 AUDIO
TITLE "Full Moon (So Thats A Piano)"
PERFORMER "The Vinny Golia Sextet"
FLAGS DCP
INDEX 00 08:03:19
FILE "11 - Full Moon (So Thats A Piano).wav" WAVE
INDEX 01 00:00:00
 
Лог проверки качества
d:\>d:\aucdtect -d/-m0 d:\zzz\*.wav
auCDtect: CD records authenticity detector, version 0.8.2
Copyright (c) 2004 Oleg Berngardt. All rights reserved.
Copyright (c) 2004 Alexander Djourik. All rights reserved.
------------------------------------------------------------
Processing file: [01. Why Would A Whale Act Like This (God Help Us All!...Another SyFY Channel Original Movie).wav]
------------------------------------------------------------
This track looks like CDDA with probability 100%
------------------------------------------------------------
Processing file: [02. Spare The Rod , Spoil The Series (Silver At It's Best).wav]
------------------------------------------------------------
This track looks like CDDA with probability 100%
------------------------------------------------------------
Processing file: [03. Photoshoot, One, Two,.wav]
------------------------------------------------------------
This track looks like CDDA with probability 100%
------------------------------------------------------------
Processing file: [04. BTSO (Big Time Secret Organization).wav]
------------------------------------------------------------
This track looks like CDDA with probability 100%
------------------------------------------------------------
Processing file: [05. Spare The Rod, Spoil The Series (Reprise) And His Career In Dance, Is Not Yet Doomed! (Here's Johnny!).wav]
------------------------------------------------------------
This track looks like CDDA with probability 100%
------------------------------------------------------------
Processing file: [06. Maboo's Justice (Are You Mocking Me Now).wav]
------------------------------------------------------------
This track looks like CDDA with probability 100%
------------------------------------------------------------
Processing file: [07. Kamikakushi .wav]
------------------------------------------------------------
This track looks like CDDA with probability 100%
------------------------------------------------------------
Processing file: [08. A Carload Of Trouble .wav]
------------------------------------------------------------
This track looks like CDDA with probability 100%
------------------------------------------------------------
Processing file: [09. Locked In.wav]
------------------------------------------------------------
This track looks like CDDA with probability 100%
------------------------------------------------------------
Processing file: [10. Abstroblue (Greetings Fellow Stargazers!).wav]
------------------------------------------------------------
This track looks like CDDA with probability 100%
------------------------------------------------------------
Processing file: [11. Full Moon (So Thats A Piano).wav]
------------------------------------------------------------
This track looks like CDDA with probability 100%
------------------------------------------------------------
Final Conclusion:
------------------------------------------------------------
These tracks looks like CDDA with probability 100%
Доп. информация:
 
Album Info & FreeJazzBlog Review
All compositions and arrangements by Vinny Golia
Recorded July 5, 2011, Westlake Recording Studios, Los Angeles, California
Jon Baffa: recording engineer
Steve Rusch: 2nd engineer
Mark Richards: assistant
Mixed by Jon Baffa and Vinny Golia at TV Tray Studio Simi Valley California
Design by Aaron Vinton
Vinny Golia's Abstractions And Retrocausalities is not only a mouthful to say but also an album to really sink your teeth into. It's a masterful dish of composed and free passages that mix seemlessly into a lively work.
Working with a sextet gives Golia an exciting assortment of textures and tones which he employes to great effect over the course of the album's 11 tunes. From delicate melodies to chunky power chords that pummel and propel and a rhythm section that is often effectively spare, the songs are festooned with complex melodies and harmonies yet are also very accessible. From the first tune, "Why would a whale Act like this? (God help us all!...another SyFY Channel Original Movie?)", to the last, "Full Moon (so thats a piano)", there is great diversity between the voices and rhythms. Off-kilter syncopations and vibrant solos come together in music that blends rock, jazz and free playing masterfully.
Golia plays an assortment of woodwinds, ranging from the delicate wood flute to the authoritative bass saxophone and tubax. His tonal and melodic choices are perfect, and the same can be said of trumpeter Dan Rosenboom and alto sax player Gavin
 Templeton. The mid point "BTSO (big time secret organization)" is a highlight, starting with a flute and becomes an upbeat has a bit of a feel reminiscent of an Ornette Coleman tune. The saxophone, drums and guitar on blocked in are tight and sympathetic to each other the excellent display musicianship. An obvious anchor of the group is Jon Armstrong's punchy electric bass and Andrew Lessman's sympathetic and driving percussion. The song "Maboo" is a wonderful example of the interplay between musicians. The woodwind solo churns, grinds and builds into a knotty and beautiful mess of notes. This is followed by Alex Noice's killer guitar solo. It rocks, shreds and then explodes, propelled by some creative percussion work from Lessman.
It would seem that I have nothing but superlatives for this album. There are things you that feel familiar and exciting, but at the same time utterly unique. Its engaging rhythms, compositional parts, compelling free improvisation and overall upbeat vibe add up to a lot to recommend. The recording is also third in a series fom Nine Winds that is meant to bring attention to some of the up and coming west coast musicians. Prior to this recording was Set One by The Walsh Set Trio and Fallen Angels by The Daniel Rosenboom Septet. Gauging fom the quality of this series, there is little to worry regarding the talent coming from Southern California.
 
Состав
Vinny Golia: sopranino, baritone & contrabass saxophones (tubax version), contra alto clarinet, bawu, daegeum and hichiriki
Dan Rosenboom: piccolo, Bb trumpet and flugelhorn
Gavin Templeton: alto saxophone
Alex Noyce: electric guitar
Jon Armstrong: electric bass
Andrew Lessman: drums
Any questions -> support@pro-jazz.com. По всем вопросам пишите -> support@pro-jazz.com
20:34
145
Нет комментариев. Ваш будет первым!