Вы используете незарегистрированную версию компонента "Вкладки"!

Поиск

(Avant-Garde Jazz, Modern Creative) Willem Breuker Kollektief - Bob's Gallery - 1988, FLAC (tracks+.cue), lossless

(Avant-Garde Jazz, Modern Creative) Willem Breuker Kollektief - Bob's Gallery - 1988, FLAC (tracks+.cue), lossless
Треклист:
•Willem Breuker Kollektief - Bob's Gallery•
Жанр: Avant-Garde Jazz, Modern Creative
Страна-производитель диска: Germany
Год издания: 1988
Издатель (лейбл): BV Haast Records
Номер по каталогу: CD 8801
Аудиокодек: FLAC (*.flac)
Тип рипа: tracks+.cue
Битрейт аудио: lossless
Продолжительность: 01:07:30
Источник (релизер): 'Avignon
Наличие сканов в содержимом раздачи: да
Треклист:
01.Serenade For A Wealthy Widow {02:41}
02.Bob's Gallery {22:51}
03.Morribreuk {03:30}
04.Jazz II (from 'Thanks, your Majesty') {08:09}
05.I Don't Love You {03:51}
06.Minimal (from 'Thanks, your Majesty') {09:53}
07.Remarkable Girl {03:16}
08.Living Apart Together Right Now {07:59}
09.La Santa Espina {02:17}
10.Serenade For A Wealthy Widow {02:59}
 
Лог создания рипа
Exact Audio Copy V1.0 beta 3 from 29. August 2011
EAC extraction logfile from 29. November 2012, 20:21
Willem Breuker Kollektief / Bob's Gallery
Used drive : TSSTcorpCDDVDW SH-216AB Adapter: 1 ID: 0
Read mode : Secure
Utilize accurate stream : Yes
Defeat audio cache : Yes
Make use of C2 pointers : No
Read offset correction : 6
Overread into Lead-In and Lead-Out : No
Fill up missing offset samples with silence : Yes
Delete leading and trailing silent blocks : No
Null samples used in CRC calculations : Yes
Used interface : Native Win32 interface for Win NT & 2000
Gap handling : Appended to previous track
Used output format : User Defined Encoder
Selected bitrate : 768 kBit/s
Quality : High
Add ID3 tag : No
Command line compressor : C:\Program Files (x86)\Exact Audio Copy\FLAC\FLAC.EXE
Additional command line options : -6 -V -T "ARTIST=%artist%" -T "TITLE=%title%" -T "ALBUM=%albumtitle%" -T "DATE=%year%" -T "TRACKNUMBER=%tracknr%" -T "GENRE=%genre%" -T "COMMENT=%comment%" -T "BAND=%albuminterpret%" -T "ALBUMARTIST=%albuminterpret%" -T "COMPOSER=%composer%" %haslyrics%--tag-from-file=LYRICS="%lyricsfile%"%haslyrics% -T "DISCNUMBER=%cdnumber%" -T "TOTALDISCS=%totalcds%" -T "TOTALTRACKS=%numtracks%" %hascover%--picture="%coverfile%"%hascover% %source% -o %dest%
TOC of the extracted CD
Track | Start | Length | Start sector | End sector
---------------------------------------------------------
1 | 0:00.32 | 2:41.70 | 32 | 12176
2 | 2:42.27 | 22:51.50 | 12177 | 115051
3 | 25:34.02 | 3:30.43 | 115052 | 130844
4 | 29:04.45 | 8:09.22 | 130845 | 167541
5 | 37:13.67 | 3:51.23 | 167542 | 184889
6 | 41:05.15 | 9:53.05 | 184890 | 229369
7 | 50:58.20 | 3:16.52 | 229370 | 244121
8 | 54:14.72 | 7:59.43 | 244122 | 280089
9 | 62:14.40 | 2:17.17 | 280090 | 290381
10 | 64:31.57 | 2:59.50 | 290382 | 303856
Track 1
Filename C:\Users\astarte\03. POST\bob'gallery\01. Serenade for a wealthy widow.wav
Pre-gap length 0:00:02.42
Peak level 58.4 %
Extraction speed 1.8 X
Track quality 100.0 %
Copy CRC CB29F4AA
Accurately ripped (confidence 2) [7DF43315] (AR v2)
Copy OK
Track 2
Filename C:\Users\astarte\03. POST\bob'gallery\02. Bob's gallery.wav
Pre-gap length 0:00:01.89
Peak level 99.9 %
Extraction speed 2.8 X
Track quality 100.0 %
Copy CRC CEFAC27E
Accurately ripped (confidence 2) [2A88C5BB] (AR v2)
Copy OK
Track 3
Filename C:\Users\astarte\03. POST\bob'gallery\03. Morribreuk.wav
Pre-gap length 0:00:01.62
Peak level 26.1 %
Extraction speed 2.9 X
Track quality 100.0 %
Copy CRC 93B4E272
Accurately ripped (confidence 2) [7571814C] (AR v2)
Copy OK
Track 4
Filename C:\Users\astarte\03. POST\bob'gallery\04. Jazz II (from ''Thanks, your Majesty'').wav
Pre-gap length 0:00:02.93
Peak level 82.0 %
Extraction speed 3.4 X
Track quality 100.0 %
Copy CRC 074B43C2
Accurately ripped (confidence 2) [3D054578] (AR v2)
Copy OK
Track 5
Filename C:\Users\astarte\03. POST\bob'gallery\05. I don't love you.wav
Pre-gap length 0:00:02.66
Peak level 69.1 %
Extraction speed 3.3 X
Track quality 100.0 %
Copy CRC CFB2E47F
Accurately ripped (confidence 2) [483D7748] (AR v2)
Copy OK
Track 6
Filename C:\Users\astarte\03. POST\bob'gallery\06. Minimal (from ''Thanks, your Majesty'').wav
Pre-gap length 0:00:02.40
Peak level 92.9 %
Extraction speed 3.8 X
Track quality 100.0 %
Copy CRC FA6ABD38
Accurately ripped (confidence 2) [4EFF828A] (AR v2)
Copy OK
Track 7
Filename C:\Users\astarte\03. POST\bob'gallery\07. Remarkable girl.wav
Pre-gap length 0:00:02.73
Peak level 55.0 %
Extraction speed 3.6 X
Track quality 100.0 %
Copy CRC 6B88B9BC
Accurately ripped (confidence 2) [5484FD65] (AR v2)
Copy OK
Track 8
Filename C:\Users\astarte\03. POST\bob'gallery\08. Living apart together right now.wav
Pre-gap length 0:00:03.06
Peak level 89.1 %
Extraction speed 4.1 X
Track quality 100.0 %
Copy CRC 8D8A0237
Accurately ripped (confidence 2) [5DEB49C0] (AR v2)
Copy OK
Track 9
Filename C:\Users\astarte\03. POST\bob'gallery\09. La santa espina.wav
Pre-gap length 0:00:02.40
Peak level 58.8 %
Extraction speed 3.6 X
Track quality 100.0 %
Copy CRC 2AFC9BD9
Accurately ripped (confidence 2) [2FA5B69C] (AR v2)
Copy OK
Track 10
Filename C:\Users\astarte\03. POST\bob'gallery\10. Serenade for a wealthy widow.wav
Pre-gap length 0:00:02.16
Peak level 70.2 %
Extraction speed 3.8 X
Track quality 100.0 %
Copy CRC B4E74A40
Accurately ripped (confidence 2) [7085EDAF] (AR v2)
Copy OK
All tracks accurately ripped
No errors occurred
End of status report
==== Log checksum 09E03634424B66CBAFD10FEE56792949E932AE83B98186808E0EE6AE163F90EC ====
 
Содержание индексной карты (.CUE)
REM GENRE Jazz
REM DISCID 8E0FD30A
REM COMMENT "ExactAudioCopy v1.0b3"
PERFORMER "Willem Breuker Kollektief"
TITLE "Bob's Gallery"
FILE "01. Serenade for a wealthy widow.wav" WAVE
TRACK 01 AUDIO
TITLE "Serenade for a wealthy widow"
PERFORMER "Willem Breuker Kollektief"
PREGAP 00:00:32
INDEX 01 00:00:00
TRACK 02 AUDIO
TITLE "Bob's gallery"
PERFORMER "Willem Breuker Kollektief"
INDEX 00 02:40:03
FILE "02. Bob's gallery.wav" WAVE
INDEX 01 00:00:00
TRACK 03 AUDIO
TITLE "Morribreuk"
PERFORMER "Willem Breuker Kollektief"
INDEX 00 22:50:03
FILE "03. Morribreuk.wav" WAVE
INDEX 01 00:00:00
TRACK 04 AUDIO
TITLE "Jazz II (from 'Thanks, your Majesty')"
PERFORMER "Willem Breuker Kollektief"
INDEX 00 03:27:48
FILE "04. Jazz II (from ''Thanks, your Majesty'').wav" WAVE
INDEX 01 00:00:00
TRACK 05 AUDIO
TITLE "I don't love you"
PERFORMER "Willem Breuker Kollektief"
INDEX 00 08:06:47
FILE "05. I don't love you.wav" WAVE
INDEX 01 00:00:00
TRACK 06 AUDIO
TITLE "Minimal (from 'Thanks, your Majesty')"
PERFORMER "Willem Breuker Kollektief"
INDEX 00 03:48:68
FILE "06. Minimal (from ''Thanks, your Majesty'').wav" WAVE
INDEX 01 00:00:00
TRACK 07 AUDIO
TITLE "Remarkable girl"
PERFORMER "Willem Breuker Kollektief"
INDEX 00 09:50:25
FILE "07. Remarkable girl.wav" WAVE
INDEX 01 00:00:00
TRACK 08 AUDIO
TITLE "Living apart together right now"
PERFORMER "Willem Breuker Kollektief"
INDEX 00 03:13:47
FILE "08. Living apart together right now.wav" WAVE
INDEX 01 00:00:00
TRACK 09 AUDIO
TITLE "La santa espina"
PERFORMER "Willem Breuker Kollektief"
INDEX 00 07:57:13
FILE "09. La santa espina.wav" WAVE
INDEX 01 00:00:00
TRACK 10 AUDIO
TITLE "Serenade for a wealthy widow"
PERFORMER "Willem Breuker Kollektief"
INDEX 00 02:15:05
FILE "10. Serenade for a wealthy widow.wav" WAVE
INDEX 01 00:00:00
 
Состав
Alto Saxophone – André Goudbeek
Double Bass – Arjen Gorter
Percussion, Xylophone – Rob Verdurmen
Piano, Synthesizer – Henk de Jonge
Soprano Saxophone, Alto Saxophone, Tenor Saxophone, Clarinet, Vocals – Willem Breuker
Tap Dance – Peter Kuit, Jr.
Tenor Saxophone – Peter Barkema
Trombone – Chris Abelen
Trombone, Tuba – Bernard Hunnekink
Trumpet – Andy Altenfelder, Boy Raaymakers
Any questions -> support@pro-jazz.com. По всем вопросам пишите -> support@pro-jazz.com
06:04
159
Нет комментариев. Ваш будет первым!