Вы используете незарегистрированную версию компонента "Вкладки"!

Поиск

(Free Jazz, Post-Bop, Avant-Garde Jazz) Tiziano Tononi & Daniele Cavallanti (Nexus) - We Still Have Visions (2CD) - 1998, FLAC (tracks+.cue), lossless

(Free Jazz, Post-Bop, Avant-Garde Jazz) Tiziano Tononi & Daniele Cavallanti (Nexus) - We Still Have Visions (2CD) - 1998, FLAC (tracks+.cue), lossless
Треклист:
Tiziano Tononi & Daniele Cavallanti (Nexus) / We Still Have Visions (2CD)
Жанр: Free Jazz, Post-Bop, Avant-Garde Jazz
Страна-производитель диска: Italy
Год издания: 1998
Издатель (лейбл): Splasc(h) Records
Номер по каталогу: CDH 657/658.2
Страна: Italy
Аудиокодек: FLAC (*.flac)
Тип рипа: tracks+.cue
Битрейт аудио: lossless
Продолжительность: 78:36 + 74:39
Источник (релизер): свой фирменный диск
Наличие сканов в содержимом раздачи: нет
Треклист:
 
CD1
Daniele Cavallanti: December Visions - Last Hope Sound (Quartet & Octet)
1-1 My Father's Song 11:54
1-2 La Mesa Drive 14:21
1-3 Turnaround 10:01
1-4 Dahomey Dance 10:43
1-5 Two: Quiet & Cold 13:22
1-6 Last Hope Sound 11:43
1-7 Kathleen Gray 6:32
 
CD2
Tiziano Tononi: A February Vision - Notes For An Imaginary Movie (A Composition In Six Parts For Dziga Vertov's 1929 Film "The Man With The Movie Camera") (Sextet)
2-1 Part I - We Begin With Some Crazy Stuff 12:18
2-2 Part II - Variations On The Famous 5/4 Theme 10:45
2-3 Part III - Digressions In The Great Eb Territories 10:45
2-4 Part IV - The Down-Home Section: Blues, Popular & Little Else 11:15
2-5 Part V - Stratification, De-Construction & Useless Development 13:05
2-6 Part VI - The Much Needed Ending Section, Basically G Minor, Where We Finally Give The Drummer Some... 12:15
 
Лог создания рипа

 
CD1
Exact Audio Copy V1.0 beta 2 from 29. April 2011
EAC extraction logfile from 30. November 2012, 21:02
Tiziano Tononi & Daniele Cavallanti / We Still Have Visions CD1
Used drive : PIONEER DVD-RW DVR-115D Adapter: 0 ID: 0
Read mode : Secure
Utilize accurate stream : Yes
Defeat audio cache : Yes
Make use of C2 pointers : No
Read offset correction : 48
Overread into Lead-In and Lead-Out : No
Fill up missing offset samples with silence : Yes
Delete leading and trailing silent blocks : No
Null samples used in CRC calculations : Yes
Used interface : Installed external ASPI interface
Gap handling : Appended to previous track
Used output format : User Defined Encoder
Selected bitrate : 896 kBit/s
Quality : High
Add ID3 tag : No
Command line compressor : C:\Program Files\Exact Audio Copy\FLAC\FLAC.EXE
Additional command line options : -6 -V -T "ARTIST=%artist%" -T "TITLE=%title%" -T "ALBUM=%albumtitle%" -T "DATE=%year%" -T "TRACKNUMBER=%tracknr%" -T "GENRE=%genre%" -T "COMMENT=%comment%" -T "BAND=%albuminterpret%" -T "COMPOSER=%composer%" %haslyrics%--ta
TOC of the extracted CD
Track | Start | Length | Start sector | End sector
---------------------------------------------------------
1 | 0:00.00 | 11:52.60 | 0 | 53459
2 | 11:52.60 | 14:21.07 | 53460 | 118041
3 | 26:13.67 | 10:01.18 | 118042 | 163134
4 | 36:15.10 | 10:43.22 | 163135 | 211381
5 | 46:58.32 | 13:22.33 | 211382 | 271564
6 | 60:20.65 | 11:43.10 | 271565 | 324299
7 | 72:04.00 | 6:32.37 | 324300 | 353736
Track 1
Filename D:\zzz\01 - My Father's Song.wav
Pre-gap length 0:00:02.00
Peak level 100.0 %
Extraction speed 3.3 X
Track quality 99.9 %
Test CRC 4B307257
Copy CRC 4B307257
Track not present in AccurateRip database
Copy OK
Track 2
Filename D:\zzz\02 - La Mesa Drive.wav
Peak level 100.0 %
Extraction speed 4.3 X
Track quality 100.0 %
Test CRC 29B8C25C
Copy CRC 29B8C25C
Track not present in AccurateRip database
Copy OK
Track 3
Filename D:\zzz\03 - Turnaround.wav
Peak level 100.0 %
Extraction speed 4.5 X
Track quality 99.9 %
Test CRC B21B1047
Copy CRC B21B1047
Track not present in AccurateRip database
Copy OK
Track 4
Filename D:\zzz\04 - Dahomey Dance.wav
Peak level 100.0 %
Extraction speed 5.2 X
Track quality 100.0 %
Test CRC 916AEEA5
Copy CRC 916AEEA5
Track not present in AccurateRip database
Copy OK
Track 5
Filename D:\zzz\05 - Two- Quiet & Cold.wav
Peak level 100.0 %
Extraction speed 5.5 X
Track quality 99.9 %
Test CRC E9FE0C52
Copy CRC E9FE0C52
Track not present in AccurateRip database
Copy OK
Track 6
Filename D:\zzz\06 - Last Hope Sound.wav
Peak level 100.0 %
Extraction speed 6.2 X
Track quality 100.0 %
Test CRC F892811C
Copy CRC F892811C
Track not present in AccurateRip database
Copy OK
Track 7
Filename D:\zzz\07 - Kathleen Gray.wav
Peak level 86.2 %
Extraction speed 6.2 X
Track quality 100.0 %
Test CRC 5677FB57
Copy CRC 5677FB57
Track not present in AccurateRip database
Copy OK
None of the tracks are present in the AccurateRip database
No errors occurred
End of status report
==== Log checksum 7B725236F4A3620636C87947739E16CB11EA7865B56E852E2C0226F906BD2754 ====
 
CD2
Exact Audio Copy V1.0 beta 2 from 29. April 2011
EAC extraction logfile from 30. November 2012, 21:25
Tiziano Tononi & Daniele Cavallanti / We Still Have Visions CD2
Used drive : PIONEER DVD-RW DVR-115D Adapter: 0 ID: 0
Read mode : Secure
Utilize accurate stream : Yes
Defeat audio cache : Yes
Make use of C2 pointers : No
Read offset correction : 48
Overread into Lead-In and Lead-Out : No
Fill up missing offset samples with silence : Yes
Delete leading and trailing silent blocks : No
Null samples used in CRC calculations : Yes
Used interface : Installed external ASPI interface
Gap handling : Appended to previous track
Used output format : User Defined Encoder
Selected bitrate : 896 kBit/s
Quality : High
Add ID3 tag : No
Command line compressor : C:\Program Files\Exact Audio Copy\FLAC\FLAC.EXE
Additional command line options : -6 -V -T "ARTIST=%artist%" -T "TITLE=%title%" -T "ALBUM=%albumtitle%" -T "DATE=%year%" -T "TRACKNUMBER=%tracknr%" -T "GENRE=%genre%" -T "COMMENT=%comment%" -T "BAND=%albuminterpret%" -T "COMPOSER=%composer%" %haslyrics%--ta
TOC of the extracted CD
Track | Start | Length | Start sector | End sector
---------------------------------------------------------
1 | 0:00.00 | 12:16.45 | 0 | 55244
2 | 12:16.45 | 11:32.52 | 55245 | 107196
3 | 23:49.22 | 11:13.20 | 107197 | 157691
4 | 35:02.42 | 13:33.30 | 157692 | 218696
5 | 48:35.72 | 13:32.10 | 218697 | 279606
6 | 62:08.07 | 12:31.15 | 279607 | 335946
Track 1
Filename D:\zzz\01 - We Begin With Some Crazy Stuff.wav
Pre-gap length 0:00:02.00
Peak level 99.9 %
Extraction speed 5.7 X
Track quality 100.0 %
Test CRC 8B3E97EF
Copy CRC 8B3E97EF
Track not present in AccurateRip database
Copy OK
Track 2
Filename D:\zzz\02 - Variations On The Famous 5,4 Theme.wav
Peak level 99.0 %
Extraction speed 6.8 X
Track quality 100.0 %
Test CRC D69C097C
Copy CRC D69C097C
Track not present in AccurateRip database
Copy OK
Track 3
Filename D:\zzz\03 - Digressions In The Great Eb Territories.wav
Peak level 99.9 %
Extraction speed 7.4 X
Track quality 99.9 %
Test CRC 968FB300
Copy CRC 968FB300
Track not present in AccurateRip database
Copy OK
Track 4
Filename D:\zzz\04 - The Down-Home Section- Blues, Popular & Little Else.wav
Peak level 100.0 %
Extraction speed 8.3 X
Track quality 99.9 %
Test CRC F6E9B5C9
Copy CRC F6E9B5C9
Track not present in AccurateRip database
Copy OK
Track 5
Filename D:\zzz\05 - Stratification, De-construction & Useless Development.wav
Peak level 99.9 %
Extraction speed 9.4 X
Track quality 100.0 %
Test CRC 5DC3D6AC
Copy CRC 5DC3D6AC
Track not present in AccurateRip database
Copy OK
Track 6
Filename D:\zzz\06 - The Much Needed Ending Section, Basically G Minor.wav
Peak level 99.9 %
Extraction speed 10.0 X
Track quality 100.0 %
Test CRC EC5EB93C
Copy CRC EC5EB93C
Track not present in AccurateRip database
Copy OK
None of the tracks are present in the AccurateRip database
No errors occurred
End of status report
==== Log checksum CC1D872E4B01DEB7E8D39F05E02475A7754EA6B44EC5223DF2C211FFD553F24A ====
 
Содержание индексной карты (.CUE)

 
CD1
REM GENRE Jazz
REM DATE 1998
REM DISCID 59126C07
REM COMMENT "ExactAudioCopy v1.0b2"
PERFORMER "Tiziano Tononi & Daniele Cavallanti"
TITLE "We Still Have Visions CD1"
FILE "01 - My Father's Song.wav" WAVE
TRACK 01 AUDIO
TITLE "My Father's Song"
PERFORMER "Tiziano Tononi & Daniele Cavallanti"
INDEX 01 00:00:00
FILE "02 - La Mesa Drive.wav" WAVE
TRACK 02 AUDIO
TITLE "La Mesa Drive"
PERFORMER "Tiziano Tononi & Daniele Cavallanti"
INDEX 01 00:00:00
FILE "03 - Turnaround.wav" WAVE
TRACK 03 AUDIO
TITLE "Turnaround"
PERFORMER "Tiziano Tononi & Daniele Cavallanti"
INDEX 01 00:00:00
FILE "04 - Dahomey Dance.wav" WAVE
TRACK 04 AUDIO
TITLE "Dahomey Dance"
PERFORMER "Tiziano Tononi & Daniele Cavallanti"
INDEX 01 00:00:00
FILE "05 - Two- Quiet & Cold.wav" WAVE
TRACK 05 AUDIO
TITLE "Two: Quiet & Cold"
PERFORMER "Tiziano Tononi & Daniele Cavallanti"
INDEX 01 00:00:00
FILE "06 - Last Hope Sound.wav" WAVE
TRACK 06 AUDIO
TITLE "Last Hope Sound"
PERFORMER "Tiziano Tononi & Daniele Cavallanti"
INDEX 01 00:00:00
FILE "07 - Kathleen Gray.wav" WAVE
TRACK 07 AUDIO
TITLE "Kathleen Gray"
PERFORMER "Tiziano Tononi & Daniele Cavallanti"
INDEX 01 00:00:00
 
CD2
REM GENRE Jazz
REM DATE 1998
REM DISCID 44117F06
REM COMMENT "ExactAudioCopy v1.0b2"
PERFORMER "Tiziano Tononi & Daniele Cavallanti"
TITLE "We Still Have Visions CD2"
FILE "01 - We Begin With Some Crazy Stuff.wav" WAVE
TRACK 01 AUDIO
TITLE "We Begin With Some Crazy Stuff"
PERFORMER "Tiziano Tononi & Daniele Cavallanti"
INDEX 01 00:00:00
FILE "02 - Variations On The Famous 5,4 Theme.wav" WAVE
TRACK 02 AUDIO
TITLE "Variations On The Famous 5/4 Theme"
PERFORMER "Tiziano Tononi & Daniele Cavallanti"
INDEX 01 00:00:00
FILE "03 - Digressions In The Great Eb Territories.wav" WAVE
TRACK 03 AUDIO
TITLE "Digressions In The Great Eb Territories"
PERFORMER "Tiziano Tononi & Daniele Cavallanti"
INDEX 01 00:00:00
FILE "04 - The Down-Home Section- Blues, Popular & Little Else.wav" WAVE
TRACK 04 AUDIO
TITLE "The Down-Home Section: Blues, Popular & Little Else"
PERFORMER "Tiziano Tononi & Daniele Cavallanti"
INDEX 01 00:00:00
FILE "05 - Stratification, De-construction & Useless Development.wav" WAVE
TRACK 05 AUDIO
TITLE "Stratification, De-construction & Useless Development"
PERFORMER "Tiziano Tononi & Daniele Cavallanti"
INDEX 01 00:00:00
FILE "06 - The Much Needed Ending Section, Basically G Minor.wav" WAVE
TRACK 06 AUDIO
TITLE "The Much Needed Ending Section, Basically G Minor"
PERFORMER "Tiziano Tononi & Daniele Cavallanti"
INDEX 01 00:00:00
 
Лог проверки качества
d:\>d:\aucdtect -d/-m0 d:\zzz\*.wav
auCDtect: CD records authenticity detector, version 0.8.2
Copyright (c) 2004 Oleg Berngardt. All rights reserved.
Copyright (c) 2004 Alexander Djourik. All rights reserved.
------------------------------------------------------------
Processing file: [01. My Father's Song.wav]
------------------------------------------------------------
This track looks like CDDA with probability 100%
------------------------------------------------------------
Processing file: [01. We Begin With Some Crazy Stuff.wav]
------------------------------------------------------------
This track looks like CDDA with probability 100%
------------------------------------------------------------
Processing file: [02. La Mesa Drive.wav]
------------------------------------------------------------
This track looks like CDDA with probability 100%
------------------------------------------------------------
Processing file: [02. Variations On The Famous 5-4 Theme.wav]
------------------------------------------------------------
This track looks like CDDA with probability 100%
------------------------------------------------------------
Processing file: [03. Digressions In The Great Eb Territories.wav]
------------------------------------------------------------
This track looks like CDDA with probability 100%
------------------------------------------------------------
Processing file: [03. Turnaround.wav]
------------------------------------------------------------
This track looks like CDDA with probability 100%
------------------------------------------------------------
Processing file: [04. Dahomey Dance.wav]
------------------------------------------------------------
This track looks like CDDA with probability 100%
------------------------------------------------------------
Processing file: [04. The Down-Home Section- Blues, Popular & Little Else.wav]
------------------------------------------------------------
This track looks like CDDA with probability 100%
------------------------------------------------------------
Processing file: [05. Stratification, De-construction & Useless Development.wav]
------------------------------------------------------------
This track looks like CDDA with probability 99%
------------------------------------------------------------
Processing file: [05. Two- Quiet & Cold.wav]
------------------------------------------------------------
This track looks like CDDA with probability 100%
------------------------------------------------------------
Processing file: [06. Last Hope Sound.wav]
------------------------------------------------------------
This track looks like CDDA with probability 100%
------------------------------------------------------------
Processing file: [06. The Much Needed Ending Section, Basically G Minor.wav]
------------------------------------------------------------
This track looks like CDDA with probability 100%
------------------------------------------------------------
Processing file: [07. Kathleen Gray.wav]
------------------------------------------------------------
This track looks like CDDA with probability 100%
------------------------------------------------------------
Final Conclusion:
------------------------------------------------------------
These tracks looks like CDDA with probability 100%
Доп. информация:
 
AMG Review
This fascinating, two-CD collection features several Italian groups led by percussionist Tiziano Tononi and saxophonist Daniele Cavallanti. The first disk features the two leading a quartet and octet, playing two pieces by Ornette Coleman, one by John Coltrane, three by Cavalanti, and one by Tononi. The second disc is a suite by Tononi, and is bolstered by the presence of Gianluigi Trovesi on alto clarinet and alto sax. Through the years, Nexus has attracted different players, the common denominator being the two leaders. The tunes incorporate a wide array of styles, ranging from free-style solos to Mingus-type collective improvisation to fairly straight forward bop voicings. While there is an occasional loss of focus, there is enough outstanding soloing and strong arranging to make this a worthwhile purchase.
 
Состав
Acoustic Bass – Giovanni Maier
Alto Saxophone – Sandro Satta (tracks: 1-1 to 1-7)
Clarinet [Alto], Alto Saxophone – Gianluigi Trovesi (tracks: 2-1 to 2-6)
Drums, Percussion, Gong [Gongs] – Tiziano Tononi
Electric Guitar, Acoustic Guitar – Roberto Cecchetto (tracks: 1-1 to 1-7)
Flute, Flute [G], Piccolo Flute – Riccardo Luppi (2) (tracks: 1-1 to 1-7)
Piano – Alberto Tacchini (tracks: 1-1 to 1-7)
Tenor Saxophone, Baritone Saxophone – Daniele Cavallanti
Trombone – Lauro Rossi (tracks: 1-1 to 1-7)
Trombone, Tuba – Beppe Caruso (tracks: 2-1 to 2-6)
Trumpet – Luca Calabrese (tracks: 2-1 to 2-6)
Any questions -> support@pro-jazz.com. По всем вопросам пишите -> support@pro-jazz.com
06:05
146
Нет комментариев. Ваш будет первым!