Вы используете незарегистрированную версию компонента "Вкладки"!

Поиск

(Avant-Garde Jazz) Ornette Coleman - Tomorrow Is the Question! - 1959 (1988 OJC), FLAC (tracks+.cue), lossless

(Avant-Garde Jazz) Ornette Coleman - Tomorrow Is the Question! - 1959 (1988 OJC), FLAC (tracks+.cue), lossless
Треклист:
Ornette Coleman - Tomorrow Is the Question!
Жанр: Avant-Garde Jazz
Страна-производитель диска: США
Год издания: 1988
Издатель (лейбл): Contemporary/Original Jazz Classics/Fantasy
Номер по каталогу: OJCCD-342-2 (S-7569)
Аудиокодек: FLAC (*.flac)
Тип рипа: tracks+.cue
Битрейт аудио: lossless
Продолжительность: 42:45
Источник (релизер): QuantError (what)
Наличие сканов в содержимом раздачи: да (со старой раздачи)
Треклист:
01. Tomorrow Is the Question! (Coleman) - 3:12
02. Tears Inside (Coleman) - 5:04
03. Mind and Time (Coleman) - 3:11
04. Compassion (Coleman) - 4:39
05. Giggin' (Coleman) - 3:22
06. Rejoicing (Coleman) - 4:03
07. Lorraine (Coleman) - 5:59
08. Turnaround (Coleman) - 7:58
09. Endless (Coleman) - 5:17
Состав:
Ornette Coleman - alto saxophone
Don Cherry - cornet
Percy Heath, Red Mitchell (#7-9) - bass
Shelly Manne - drums
Recorded at Contemporary's Studio, Los Angeles, CA on March 9-10 (#1-6); January 16 (#7); February 23 (#8,9), 1959.
 
Лог создания рипа
Exact Audio Copy V0.99 prebeta 5 from 4. May 2009
EAC extraction logfile from 13. November 2010, 12:31
Ornette Coleman / Tomorrow is the Question
Used drive : PLEXTOR CD-ROM PX-40TS Adapter: 6 ID: 3
Read mode : Secure
Utilize accurate stream : Yes
Defeat audio cache : Yes
Make use of C2 pointers : No
Read offset correction : 676
Overread into Lead-In and Lead-Out : Yes
Fill up missing offset samples with silence : Yes
Delete leading and trailing silent blocks : No
Null samples used in CRC calculations : Yes
Used interface : Native Win32 interface for Win NT & 2000
Gap handling : Appended to previous track
Used output format : User Defined Encoder
Selected bitrate : 768 kBit/s
Quality : High
Add ID3 tag : No
Command line compressor : C:\Program Files (x86)\Exact Audio Copy\FLAC\FLAC.EXE
Additional command line options : -6 -V -T "ARTIST=%a" -T "TITLE=%t" -T "ALBUM=%g" -T "DATE=%y" -T "TRACKNUMBER=%n" -T "GENRE=%m" -T "COMMENT=%e" %s -o %d
TOC of the extracted CD
Track | Start | Length | Start sector | End sector
---------------------------------------------------------
1 | 0:00.00 | 3:12.47 | 0 | 14446
2 | 3:12.47 | 5:04.48 | 14447 | 37294
3 | 8:17.20 | 3:11.52 | 37295 | 51671
4 | 11:28.72 | 4:39.53 | 51672 | 72649
5 | 16:08.50 | 3:22.67 | 72650 | 87866
6 | 19:31.42 | 4:03.48 | 87867 | 106139
7 | 23:35.15 | 5:59.15 | 106140 | 133079
8 | 29:34.30 | 7:58.32 | 133080 | 168961
9 | 37:32.62 | 5:17.38 | 168962 | 192774
Track 1
Filename D:\Music\Ornette Coleman - Tomorrow Is the Question!\01. Tomorrow is the Question.wav
Pre-gap length 0:00:02.00
Peak level 72.9 %
Track quality 100.0 %
Test CRC 513E6CCC
Copy CRC 513E6CCC
Cannot be verified as accurate (confidence 6) [DD652092], AccurateRip returned [6BDB1052]
Copy OK
Track 2
Filename D:\Music\Ornette Coleman - Tomorrow Is the Question!\02. Tears Inside.wav
Pre-gap length 0:00:03.02
Peak level 66.3 %
Track quality 100.0 %
Test CRC 1BEDE245
Copy CRC 1BEDE245
Cannot be verified as accurate (confidence 6) [7504B79E], AccurateRip returned [AD5654A8]
Copy OK
Track 3
Filename D:\Music\Ornette Coleman - Tomorrow Is the Question!\03. Mind and Time.wav
Pre-gap length 0:00:03.15
Peak level 62.2 %
Track quality 100.0 %
Test CRC 295A274F
Copy CRC 295A274F
Cannot be verified as accurate (confidence 6) [FD26229C], AccurateRip returned [C69620C3]
Copy OK
Track 4
Filename D:\Music\Ornette Coleman - Tomorrow Is the Question!\04. Compassion.wav
Pre-gap length 0:00:03.52
Peak level 50.9 %
Track quality 100.0 %
Test CRC 0AA2351E
Copy CRC 0AA2351E
Cannot be verified as accurate (confidence 6) [3C865381], AccurateRip returned [B7C38874]
Copy OK
Track 5
Filename D:\Music\Ornette Coleman - Tomorrow Is the Question!\05. Giggin'.wav
Pre-gap length 0:00:03.23
Peak level 63.3 %
Track quality 99.9 %
Test CRC 2CBEEF40
Copy CRC 2CBEEF40
Cannot be verified as accurate (confidence 6) [FFE4FCAC], AccurateRip returned [C4BD5D40]
Copy OK
Track 6
Filename D:\Music\Ornette Coleman - Tomorrow Is the Question!\06. Rejoicing.wav
Pre-gap length 0:00:03.52
Peak level 62.7 %
Track quality 100.0 %
Test CRC 1A36A057
Copy CRC 1A36A057
Cannot be verified as accurate (confidence 5) [D64DED51], AccurateRip returned [D486C8DB]
Copy OK
Track 7
Filename D:\Music\Ornette Coleman - Tomorrow Is the Question!\07. Lorraine.wav
Pre-gap length 0:00:03.43
Peak level 65.8 %
Track quality 100.0 %
Test CRC F621E5C5
Copy CRC F621E5C5
Cannot be verified as accurate (confidence 6) [D81D9B98], AccurateRip returned [F8B5DB3E]
Copy OK
Track 8
Filename D:\Music\Ornette Coleman - Tomorrow Is the Question!\08. Turnaround.wav
Pre-gap length 0:00:03.03
Peak level 60.6 %
Track quality 100.0 %
Test CRC A0B289E7
Copy CRC A0B289E7
Cannot be verified as accurate (confidence 7) [BAA1B95B], AccurateRip returned [CDCEE0C2]
Copy OK
Track 9
Filename D:\Music\Ornette Coleman - Tomorrow Is the Question!\09. Endless.wav
Pre-gap length 0:00:03.62
Peak level 52.7 %
Track quality 100.0 %
Test CRC 6028880A
Copy CRC 6028880A
Cannot be verified as accurate (confidence 6) [B446D934], AccurateRip returned [7141C1C5]
Copy OK
No tracks could be verified as accurate
You may have a different pressing from the one(s) in the database
No errors occurred
End of status report
 
Содержание индексной карты (.CUE)
REM GENRE Jazz
REM DATE 1959
REM DISCID 800A0A09
REM COMMENT "ExactAudioCopy v0.99pb5"
PERFORMER "Ornette Coleman"
TITLE "Tomorrow Is the Question"
FILE "01 - Tomorrow Is the Question.wav" WAVE
TRACK 01 AUDIO
TITLE "Tomorrow Is the Question"
PERFORMER "Ornette Coleman"
INDEX 01 00:00:00
TRACK 02 AUDIO
TITLE "Tears Inside"
PERFORMER "Ornette Coleman"
INDEX 00 03:09:45
FILE "02 - Tears Inside.wav" WAVE
INDEX 01 00:00:00
TRACK 03 AUDIO
TITLE "Mind and Time"
PERFORMER "Ornette Coleman"
INDEX 00 05:01:33
FILE "03 - Mind and Time.wav" WAVE
INDEX 01 00:00:00
TRACK 04 AUDIO
TITLE "Compassion"
PERFORMER "Ornette Coleman"
INDEX 00 03:08:00
FILE "04 - Compassion.wav" WAVE
INDEX 01 00:00:00
TRACK 05 AUDIO
TITLE "Giggin'"
PERFORMER "Ornette Coleman"
INDEX 00 04:36:30
FILE "05 - Giggin'.wav" WAVE
INDEX 01 00:00:00
TRACK 06 AUDIO
TITLE "Rejoicing"
PERFORMER "Ornette Coleman"
INDEX 00 03:19:15
FILE "06 - Rejoicing.wav" WAVE
INDEX 01 00:00:00
TRACK 07 AUDIO
TITLE "Lorraine"
PERFORMER "Ornette Coleman"
INDEX 00 04:00:05
FILE "07 - Lorraine.wav" WAVE
INDEX 01 00:00:00
TRACK 08 AUDIO
TITLE "Turnaround"
PERFORMER "Ornette Coleman"
INDEX 00 05:56:12
FILE "08 - Turnaround.wav" WAVE
INDEX 01 00:00:00
TRACK 09 AUDIO
TITLE "Endless"
PERFORMER "Ornette Coleman"
INDEX 00 07:54:45
FILE "09 - Endless.wav" WAVE
INDEX 01 00:00:00
 
Отчет CUETools
[CUETools log; Date: 30.11.2012 3:32:45; Version: 2.1.4]
[CTDB TOCID: G9YEawF1xx_oOLLvp99xVhZbM3U-] found.
Track | CTDB Status
1 | (4/4) Accurately ripped
2 | (3/4) Accurately ripped
3 | (3/4) Accurately ripped
4 | (3/4) Accurately ripped
5 | (3/4) Accurately ripped
6 | (3/4) Accurately ripped
7 | (3/4) Accurately ripped
8 | (3/4) Accurately ripped
9 | (3/4) Accurately ripped
[AccurateRip ID: 000d3278-006316fc-800a0a09] found.
Track [ CRC | V2 ] Status
01 [dd652092|74562373] (00+00/28) No match
02 [7504b79e|71b334ad] (00+00/28) No match
03 [fd26229c|2abc7210] (00+00/28) No match
04 [3c865381|58e711a9] (00+00/28) No match
05 [ffe4fcac|e4fbb18d] (00+00/28) No match
06 [d64ded51|293ac92e] (00+00/27) No match
07 [d81d9b98|1f6dc6f2] (00+00/28) No match
08 [baa1b95b|c7f9a1ef] (00+00/29) No match
09 [b446d934|82483456] (00+00/28) No match
Offsetted by -368:
01 [481f200c] (03/28) Accurately ripped
02 [366d3ca6] (03/28) Accurately ripped
03 [a52fedab] (03/28) Accurately ripped
04 [2535a08a] (03/28) Accurately ripped
05 [827377d2] (03/28) Accurately ripped
06 [f87d0545] (03/27) Accurately ripped
07 [3c32ba35] (03/28) Accurately ripped
08 [2d1aeb37] (03/29) Accurately ripped
09 [4e41e36e] (03/28) Accurately ripped
Offsetted by 83:
01 [6fa20c63] (05/28) Accurately ripped
02 [a69dc72d] (05/28) Accurately ripped
03 [547c250e] (05/28) Accurately ripped
04 [20fb10c0] (05/28) Accurately ripped
05 [93cc8f9e] (05/28) Accurately ripped
06 [25635667] (05/27) Accurately ripped
07 [2aa689fd] (05/28) Accurately ripped
08 [f04a1fe1] (05/29) Accurately ripped
09 [49e98743] (05/28) Accurately ripped
Offsetted by 173:
01 [6bdb1052] (08/28) Accurately ripped
02 [ad5654a8] (08/28) Accurately ripped
03 [c69620c3] (08/28) Accurately ripped
04 [b7c38874] (08/28) Accurately ripped
05 [c4bd5d40] (08/28) Accurately ripped
06 [d486c8db] (07/27) Accurately ripped
07 [f8b5db3e] (08/28) Accurately ripped
08 [cdcee0c2] (09/29) Accurately ripped
09 [7141c1c5] (08/28) Accurately ripped
Offsetted by 296:
01 [cc70d93c] (03/28) Accurately ripped
02 [5683e016] (03/28) Accurately ripped
03 [febd2f7b] (03/28) Accurately ripped
04 [daee5e09] (03/28) Accurately ripped
05 [2a0bf99b] (03/28) Accurately ripped
06 [a3674079] (03/27) Accurately ripped
07 [83fd4ba9] (03/28) Accurately ripped
08 [2c698965] (03/29) Accurately ripped
09 [90ce080f] (03/28) Accurately ripped
Offsetted by 394:
01 [b84eb0cd] (04/28) Accurately ripped
02 [4b8f9747] (04/28) Accurately ripped
03 [a1e43af1] (04/28) Accurately ripped
04 [dd8f77cc] (04/28) Accurately ripped
05 [f219b79f] (04/28) Accurately ripped
06 [e9e6df14] (04/27) Accurately ripped
07 [36a9af46] (04/28) Accurately ripped
08 [91c076d2] (04/29) Accurately ripped
09 [a01bcb63] (04/28) Accurately ripped
Track Peak [ CRC32 ] [W/O NULL] [ LOG ]
-- 72,9 [0F3BB271] [D1A60323]
01 72,9 [513E6CCC] [EF6896AD] CRC32
02 66,3 [1BEDE245] [981494BF] CRC32
03 62,2 [295A274F] [F3B3D988] CRC32
04 50,9 [0AA2351E] [A313B120] CRC32
05 63,3 [2CBEEF40] [A0C21EC2] CRC32
06 62,7 [1A36A057] [9365D408] CRC32
07 65,8 [F621E5C5] [F00E409D] CRC32
08 60,6 [A0B289E7] [4473A68B] CRC32
09 52,7 [6028880A] [64790B9F] CRC32
 
Review by Thom Jurek
On his second outing for the Contemporary label, Ornette dusted the piano from the bandstand and focused instead on a quartet. For some unexplained reason, Billy Higgins was replaced by Shelly Manne; the only constants remain Coleman and Don Cherry. The focus, then, is on the interplay between the altoist and trumpeter in executing Ornette's tunes, which were, more than on the preceding album (Something Else!, recorded a year earlier), knottier and tighter in their arrangement style. The odd-syncopation style of the front line on numbers such as "Tears Inside," which comes out of the box wailing and then simmers down into a moody, swinging blues, was a rough transition for the rhythm section. And the more Ornette and Cherry try to open it up into something more free and less attached to the tune's form, the more Manne and especially bassist Percy Heath hang on. Still, there are great moments here: for example, the celebratory freedom of "Giggin'," with its wonderful trumpet solo, and "Rejoicing," which has become one of Coleman's classics for its elongated melody line and simple obbligato phrasing, which become part of a wonderfully complex solo that keeps the blues firmly intact. The final track, "Endless," is pure magic. After Manne carries it in 6/8, Coleman uses a nursery rhyme to move to the solo terrain and, when he does, the solo itself becomes a part of that rhyme as even Don Cherry feels his way through it in his break. And, if anything, this is one of the things that came to define Ornette -- his willingness to let simplicity and its bright colors and textures confound not only other players and listeners, but also him too. In those days, Coleman's musical system -- although worked out in detail -- always left room for the unexpected and, in fact, was played as if his life depended on it. As a result, Tomorrow Is the Question! was a very literal title; who could have guessed the expansive, world-widening direction that Coleman's system would head into next?
На замену мишкиного рипа.
Any questions -> support@pro-jazz.com. По всем вопросам пишите -> support@pro-jazz.com
06:03
159
Нет комментариев. Ваш будет первым!