Вы используете незарегистрированную версию компонента "Вкладки"!

Поиск

(Avant-Garde Jazz,Modern Creative) Thomas Stronen - Pohlitz - 2006, FLAC (tracks+.cue), lossless

(Avant-Garde Jazz,Modern Creative) Thomas Stronen - Pohlitz - 2006, FLAC (tracks+.cue), lossless
Треклист:
Thomas Stronen - Pohlitz
Жанр: Avant-Garde Jazz,Modern Creative
Год выпуска диска: 2006
Производитель диска: Europe
Аудио кодек: FLAC
Тип рипа: tracks+.cue
Битрейт аудио: lossless
Продолжительность: 39:13
Трэклист:
1 Heterogeneous Substances (4:15)
2 Ingenious Pursuits (5:19)
3 Lavoisier (3:04)
4 Dispatches (6:01)
5 E...Quilibrium (3:38)
6 Mutti (3:43)
7 Interacting Massive Particles (4:24)
8 Natural History Of Creation (8:44)
Доп. информация:
Label: Rune Grammofon
Catalog#: RCD 2051
Rip с фирменного CD из собственной коллекции
Credits:
Thomas Stronen - beatable items,live electronic treatments,music.
Recorded with no overdubs or pre-programming at oslo nye by simen scharning.
 
Log file:
Отчёт EAC об извлечении, выполненном 15. августа 2009, 22:36 для диска:
Stronen, Thomas / Pohlitz
Дисковод: MATSHITABD-MLT UJ-210S Adapter: 0 ID: 0
Режим чтения: Достоверный (C2: нет, Точный поток: да, Отключение кэша: да)
Коррекция смещения при чтении: 102
Способность читать области Lead-in и Lead-out : Нет
Выходной формат: Внутренние WAV-операции
44.100 Гц; 16 бит; стерео
Другие параметры:
Заполнение пропущенных сэмплов тишиной : Да
Удаление блоков с тишиной в начале и конце : Нет
Встроенный Win32-интерфейс для Win NT/2000
Трек 1
Имя файла J:\temp\Stronen, Thomas - Pohlitz\01. Heterogeneous Substances.wav
Длина предзазора 0:00:02.00
Пиковый уровень 30.4 %
Качество трека 100.0 %
CRC теста E2B3EB1E
CRC копии E2B3EB1E
Копирование... OK
Трек 2
Имя файла J:\temp\Stronen, Thomas - Pohlitz\02. Ingenious Substances.wav
Пиковый уровень 89.4 %
Качество трека 100.0 %
CRC теста 748B854B
CRC копии 748B854B
Копирование... OK
Трек 3
Имя файла J:\temp\Stronen, Thomas - Pohlitz\03. Lavoisier.wav
Пиковый уровень 77.1 %
Качество трека 100.0 %
CRC теста 00218780
CRC копии 00218780
Копирование... OK
Трек 4
Имя файла J:\temp\Stronen, Thomas - Pohlitz\04. Dispatches.wav
Длина предзазора 0:00:00.11
Пиковый уровень 87.6 %
Качество трека 100.0 %
CRC теста 6A21725B
CRC копии 6A21725B
Копирование... OK
Трек 5
Имя файла J:\temp\Stronen, Thomas - Pohlitz\05. E... quilibrium.wav
Пиковый уровень 97.9 %
Качество трека 100.0 %
CRC теста 5E51BB1B
CRC копии 5E51BB1B
Копирование... OK
Трек 6
Имя файла J:\temp\Stronen, Thomas - Pohlitz\06. Mutti.wav
Пиковый уровень 99.6 %
Качество трека 99.9 %
CRC теста 1F4532DE
CRC копии 1F4532DE
Копирование... OK
Трек 7
Имя файла J:\temp\Stronen, Thomas - Pohlitz\07. Interacting Massive Particles.wav
Пиковый уровень 88.5 %
Качество трека 99.9 %
CRC теста C3229B7D
CRC копии C3229B7D
Копирование... OK
Трек 8
Имя файла J:\temp\Stronen, Thomas - Pohlitz\08. Natural History Of Creation.wav
Пиковый уровень 89.1 %
Качество трека 100.0 %
CRC теста AADB4AE4
CRC копии AADB4AE4
Копирование... OK
Ошибок не произошло
Конец отчёта
Any questions -> support@pro-jazz.com. По всем вопросам пишите -> support@pro-jazz.com
14:24
155
Нет комментариев. Ваш будет первым!