Вы используете незарегистрированную версию компонента "Вкладки"!

Поиск

(Avant-Garde Jazz,Fusion) Vernon Reid & Masque - Known Unknown - 2004, FLAC (tracks+.cue), lossless

(Avant-Garde Jazz,Fusion) Vernon Reid & Masque - Known Unknown - 2004, FLAC (tracks+.cue), lossless
Треклист:
Vernon Reid & Masque - Known Unknown
Жанр:Avant-Garde Jazz, Fusion
Год выпуска диска: 2004
Производитель диска: U.S.A.
Аудио кодек: FLAC
Тип рипа: tracks+.cue
Битрейт аудио: lossless
Продолжительность: 47:49
Трэклист:
1 .Known Unknown 5:04
2 .The Slouch 4:15
3 .Brilliant Corners 2:40
4 .Strange Blessing 5:10
5 .Outskirts 3:50
6 .Down and Out in Kigali and Freetown 2:54
7 .Sidewinder 2:34
8 .Voodoo Pimp Stroll 6:01
9 .Time 4:47
10. Flatbush and Church 3:46
11. Ebow Underground [excerpt] 0:39
12. X the Unknown 6:03
Доп. информация:
Label:Favored Nations
Catalog#:FN2320-2
Rip с фирменного CD из собственной коллекции
Credits:
Marlon Browden -drums
DJ Logic -special guest Voodoo Pimp Stroll
Leon Gruenbaum -organ, piano, keyboards, casio
Vernon Reid -guitar,guitar synth
Hank Schroy -bass
 
Log file:
Отчёт EAC об извлечении, выполненном 14. августа 2009, 18:32 для диска:
Vernon Reid & Masque / Known Unknown
Дисковод: MATSHITABD-MLT UJ-210S Adapter: 0 ID: 0
Режим чтения: Достоверный (C2: нет, Точный поток: да, Отключение кэша: да)
Коррекция смещения при чтении: 102
Способность читать области Lead-in и Lead-out : Нет
Выходной формат: Внутренние WAV-операции
44.100 Гц; 16 бит; стерео
Другие параметры:
Заполнение пропущенных сэмплов тишиной : Да
Удаление блоков с тишиной в начале и конце : Нет
Встроенный Win32-интерфейс для Win NT/2000
Трек 1
Имя файла J:\temp\Vernon Reid & Masque - Known Unknown\01. Known Unknown.wav
Длина предзазора 0:00:02.00
Пиковый уровень 97.3 %
Качество трека 100.0 %
CRC теста C3FE1739
CRC копии C3FE1739
Копирование... OK
Трек 2
Имя файла J:\temp\Vernon Reid & Masque - Known Unknown\02. The Slouch.wav
Пиковый уровень 98.0 %
Качество трека 100.0 %
CRC теста 467E7283
CRC копии 467E7283
Копирование... OK
Трек 3
Имя файла J:\temp\Vernon Reid & Masque - Known Unknown\03. Brilliant Corners.wav
Пиковый уровень 97.9 %
Качество трека 100.0 %
CRC теста 3A2D1549
CRC копии 3A2D1549
Копирование... OK
Трек 4
Имя файла J:\temp\Vernon Reid & Masque - Known Unknown\04. Strange Blessing.wav
Пиковый уровень 98.0 %
Качество трека 100.0 %
CRC теста FC3D765D
CRC копии FC3D765D
Копирование... OK
Трек 5
Имя файла J:\temp\Vernon Reid & Masque - Known Unknown\05. Outskirts.wav
Длина предзазора 0:00:00.01
Пиковый уровень 98.0 %
Качество трека 100.0 %
CRC теста C54F8746
CRC копии C54F8746
Копирование... OK
Трек 6
Имя файла J:\temp\Vernon Reid & Masque - Known Unknown\06. Down And Out In Kigali And Freetown.wav
Пиковый уровень 97.3 %
Качество трека 100.0 %
CRC теста 9C809D95
CRC копии 9C809D95
Копирование... OK
Трек 7
Имя файла J:\temp\Vernon Reid & Masque - Known Unknown\07. Sidewinder.wav
Пиковый уровень 98.0 %
Качество трека 99.9 %
CRC теста 7C6F2A84
CRC копии 7C6F2A84
Копирование... OK
Трек 8
Имя файла J:\temp\Vernon Reid & Masque - Known Unknown\08. Voodoo Pimp Stroll.wav
Пиковый уровень 97.3 %
Качество трека 100.0 %
CRC теста 64489F9A
CRC копии 64489F9A
Копирование... OK
Трек 9
Имя файла J:\temp\Vernon Reid & Masque - Known Unknown\09. Time.wav
Пиковый уровень 98.0 %
Качество трека 99.9 %
CRC теста A153ABB9
CRC копии A153ABB9
Копирование... OK
Трек 10
Имя файла J:\temp\Vernon Reid & Masque - Known Unknown\10. Flatbush And Church.wav
Пиковый уровень 97.1 %
Качество трека 100.0 %
CRC теста 37FAF976
CRC копии 37FAF976
Копирование... OK
Трек 11
Имя файла J:\temp\Vernon Reid & Masque - Known Unknown\11. Ebow Underground (Excerpt).wav
Пиковый уровень 49.7 %
Качество трека 100.0 %
CRC теста B980239F
CRC копии B980239F
Копирование... OK
Трек 12
Имя файла J:\temp\Vernon Reid & Masque - Known Unknown\12. X The Unknown.wav
Пиковый уровень 100.0 %
Качество трека 100.0 %
CRC теста 5FA50C43
CRC копии 5FA50C43
Копирование... OK
Ошибок не произошло
Конец отчёта
 
Содержание индексной карты (.CUE):
REM GENRE Fusion
REM DATE 2004
REM DISCID 880B340C
REM COMMENT "ExactAudioCopy v0.95b4"
PERFORMER "Vernon Reid & Masque"
TITLE "Known Unknown"
FILE "01. Known Unknown.wav" WAVE
TRACK 01 AUDIO
TITLE "Known Unknown"
PERFORMER "Vernon Reid & Masque"
ISRC USFN10423201
INDEX 01 00:00:00
FILE "02. The Slouch.wav" WAVE
TRACK 02 AUDIO
TITLE "The Slouch"
PERFORMER "Vernon Reid & Masque"
ISRC USFN10423202
INDEX 01 00:00:00
FILE "03. Brilliant Corners.wav" WAVE
TRACK 03 AUDIO
TITLE "Brilliant Corners"
PERFORMER "Vernon Reid & Masque"
ISRC USFN10423203
INDEX 01 00:00:00
FILE "04. Strange Blessing.wav" WAVE
TRACK 04 AUDIO
TITLE "Strange Blessing"
PERFORMER "Vernon Reid & Masque"
ISRC USFN10423204
INDEX 01 00:00:00
TRACK 05 AUDIO
TITLE "Outskirts"
PERFORMER "Vernon Reid & Masque"
ISRC USFN10423205
INDEX 00 05:10:68
FILE "05. Outskirts.wav" WAVE
INDEX 01 00:00:00
FILE "06. Down And Out In Kigali And Freetown.wav" WAVE
TRACK 06 AUDIO
TITLE "Down And Out In Kigali And Freetown"
PERFORMER "Vernon Reid & Masque"
ISRC USFN10423206
INDEX 01 00:00:00
FILE "07. Sidewinder.wav" WAVE
TRACK 07 AUDIO
TITLE "Sidewinder"
PERFORMER "Vernon Reid & Masque"
ISRC USFN10423207
INDEX 01 00:00:00
FILE "08. Voodoo Pimp Stroll.wav" WAVE
TRACK 08 AUDIO
TITLE "Voodoo Pimp Stroll"
PERFORMER "Vernon Reid & Masque"
ISRC USFN10423208
INDEX 01 00:00:00
FILE "09. Time.wav" WAVE
TRACK 09 AUDIO
TITLE "Time"
PERFORMER "Vernon Reid & Masque"
ISRC USFN10423209
INDEX 01 00:00:00
FILE "10. Flatbush And Church.wav" WAVE
TRACK 10 AUDIO
TITLE "Flatbush And Church"
PERFORMER "Vernon Reid & Masque"
ISRC USFN10423210
INDEX 01 00:00:00
FILE "11. Ebow Underground (Excerpt).wav" WAVE
TRACK 11 AUDIO
TITLE "Ebow Underground (Excerpt)"
PERFORMER "Vernon Reid & Masque"
ISRC USFN10423211
INDEX 01 00:00:00
FILE "12. X The Unknown.wav" WAVE
TRACK 12 AUDIO
TITLE "X The Unknown"
PERFORMER "Vernon Reid & Masque"
ISRC USFN10423212
INDEX 01 00:00:00
 
скрытый текст
Any questions -> support@pro-jazz.com. По всем вопросам пишите -> support@pro-jazz.com
14:25
161
Нет комментариев. Ваш будет первым!