Вы используете незарегистрированную версию компонента "Вкладки"!

Поиск

(Avant-Garde Jazz) Andrew Cyrille - Nuba - 1979, FLAC (tracks+.cue), lossless

(Avant-Garde Jazz) Andrew Cyrille - Nuba - 1979, FLAC (tracks+.cue), lossless
Треклист:
Andrew Cyrille - Nuba
Жанр: Avant-Garde Jazz
Год выпуска диска: 1979
Производитель диска: Black Saint (Italy)
Аудио кодек: FLAC
Тип рипа: tracks+.cue
Битрейт аудио: lossless
Продолжительность: 45:36
Трэклист:
1 NUBA 1 7:27
2 CORNBREAD PICNIC (MAIZE) 4:58
3 ONE BEFORE ZERO 5:23
4 JJ&A 5:12
5 IN THESE LAST DAYS 7:35
6 SORRY 6:58
7 NUBA 2 7:50
Доп. информация: В комплекте полный набор сканов.
LineUp
JIMMY LYONS (as)
JEANNE LEE (v)
ANDREW CYRILLE (d)
AMG Review http://www.allmusic.com/cg/amg.dll?p=amg&sql=10:wzfqxqe5ldae
 
Отчёт EAC
EAC extraction logfile from 12. January 2009, 17:37 for CD
Andrew Cyrille / Nuba
Used drive : PBDS CDRWDVD DH-48C2S Adapter: 1 ID: 1
Read mode : Secure with NO C2, accurate stream, disable cache
Read offset correction : 6
Overread into Lead-In and Lead-Out : No
Used output format : C:\Program Files\FLAC\flac.exe (User Defined Encoder)
128 kBit/s
Additional command line options : -V -8 -T "artist=%a" -T "title=%t" -T "album=%g" -T "date=%y" -T "tracknumber=%n" -T "genre=%m" %s
Other options :
Fill up missing offset samples with silence : Yes
Delete leading and trailing silent blocks : No
Native Win32 interface for Win NT & 2000
Track 1
Filename D:\DOWNLOADS\_UPLOADS\Andrew Cyrille - Nuba (1979) [FLAC]\01 - Nuba 1.wav
Pre-gap length 0:00:02.42
Peak level 92.3 %
Track quality 100.0 %
Test CRC CEDAAE4F
Copy CRC CEDAAE4F
Copy OK
Track 2
Filename D:\DOWNLOADS\_UPLOADS\Andrew Cyrille - Nuba (1979) [FLAC]\02 - Cornbread Picnic (Maize).wav
Peak level 100.0 %
Track quality 100.0 %
Test CRC 29B4DE26
Copy CRC 29B4DE26
Copy OK
Track 3
Filename D:\DOWNLOADS\_UPLOADS\Andrew Cyrille - Nuba (1979) [FLAC]\03 - The One Before Zero.wav
Peak level 88.3 %
Track quality 100.0 %
Test CRC CC00DC1E
Copy CRC CC00DC1E
Copy OK
Track 4
Filename D:\DOWNLOADS\_UPLOADS\Andrew Cyrille - Nuba (1979) [FLAC]\04 - JJ&A.wav
Peak level 100.0 %
Track quality 100.0 %
Test CRC 6D46918C
Copy CRC 6D46918C
Copy OK
Track 5
Filename D:\DOWNLOADS\_UPLOADS\Andrew Cyrille - Nuba (1979) [FLAC]\05 - In These Last Days.wav
Peak level 86.1 %
Track quality 100.0 %
Test CRC 9CE6CA57
Copy CRC 9CE6CA57
Copy OK
Track 6
Filename D:\DOWNLOADS\_UPLOADS\Andrew Cyrille - Nuba (1979) [FLAC]\06 - Sorry.wav
Peak level 99.7 %
Track quality 100.0 %
Test CRC A77721AC
Copy CRC A77721AC
Copy OK
Track 7
Filename D:\DOWNLOADS\_UPLOADS\Andrew Cyrille - Nuba (1979) [FLAC]\07 - Nuba 2.wav
Peak level 88.2 %
Track quality 100.0 %
Test CRC 46398376
Copy CRC 46398376
Copy OK
No errors occured
End of status report
Any questions -> support@pro-jazz.com. По всем вопросам пишите -> support@pro-jazz.com
14:26
231
Нет комментариев. Ваш будет первым!