Вы используете незарегистрированную версию компонента "Вкладки"!

Поиск

(Free Jazz, Avant-Garde Jazz) Max Roach with Anthony Braxton - Birth and Rebirth - 1978, FLAC (tracks+.cue), lossless

(Free Jazz, Avant-Garde Jazz) Max Roach with Anthony Braxton - Birth and Rebirth - 1978, FLAC (tracks+.cue), lossless
Треклист:
Max Roach with Anthony Braxton - Birth and Rebirth
Жанр: Free Jazz, Avant-Garde Jazz
Год выпуска диска: 1978
Производитель диска: Black Saint (Italy)
Аудио кодек: FLAC
Тип рипа: tracks+.cue
Битрейт аудио: lossless
Продолжительность: 48:04
Трэклист:
1 BIRTH 9:37
2 MAGIC AND MUSIC 6:47
3 TROPICAL FOREST 4:54
4 DANCE GRIOT 9:24
5 SPIRIT POSSESSION 9:46
6 SOFT SHOE 4:58
7 REBIRTH 2:38
Доп. информация: В комплекте полный набор сканов
LineUp
ANTHONY BRAXTON (cl)
MAX ROACH (d)
AMG Review http://www.allmusic.com/cg/amg.dll?p=amg&sql=10:hxfuxqtgldke
 
Log File
EAC extraction logfile from 7. April 2007, 16:40 for CD
Max Roach / Birth And Rebirth
Used drive : PHILIPS DROM6216 Adapter: 3 ID: 0
Read mode : Secure with NO C2, accurate stream, disable cache
Read offset correction : 738
Overread into Lead-In and Lead-Out : No
Used output format : C:\Program Files\FLAC\flac.exe (User Defined Encoder)
320 kBit/s
Additional command line options : -V -8 -T "artist=%a" -T "title=%t" -T "album=%g" -T "date=%y" -T "tracknumber=%n" -T "genre=%m" %s
Other options :
Fill up missing offset samples with silence : Yes
Delete leading and trailing silent blocks : No
Native Win32 interface for Win NT & 2000
Track 1
Filename C:\MUZIEK 1\Anthony Braxton - Birth And Rebirth(1978)[flac]\01 - Birth.wav
Pre-gap length 0:00:02.42
Peak level 100.0 %
Track quality 100.0 %
Test CRC F63F0629
Copy CRC F63F0629
Copy OK
Track 2
Filename C:\MUZIEK 1\Anthony Braxton - Birth And Rebirth(1978)[flac]\02 - Magic And Music.wav
Pre-gap length 0:00:01.56
Peak level 93.3 %
Track quality 100.0 %
Test CRC C119953E
Copy CRC C119953E
Copy OK
Track 3
Filename C:\MUZIEK 1\Anthony Braxton - Birth And Rebirth(1978)[flac]\03 - Tropical Forest.wav
Pre-gap length 0:00:01.73
Peak level 88.5 %
Track quality 100.0 %
Test CRC 3D60C8F3
Copy CRC 3D60C8F3
Copy OK
Track 4
Filename C:\MUZIEK 1\Anthony Braxton - Birth And Rebirth(1978)[flac]\04 - Dance Griot.wav
Pre-gap length 0:00:01.84
Peak level 100.0 %
Track quality 100.0 %
Test CRC C5847D4F
Copy CRC C5847D4F
Copy OK
Track 5
Filename C:\MUZIEK 1\Anthony Braxton - Birth And Rebirth(1978)[flac]\05 - Spirit Possession.wav
Pre-gap length 0:00:02.66
Peak level 100.0 %
Track quality 100.0 %
Test CRC 8484B48D
Copy CRC 8484B48D
Copy OK
Track 6
Filename C:\MUZIEK 1\Anthony Braxton - Birth And Rebirth(1978)[flac]\06 - Soft Shoe.wav
Pre-gap length 0:00:01.80
Peak level 73.9 %
Track quality 100.0 %
Test CRC 2BBABB1B
Copy CRC 2BBABB1B
Copy OK
Track 7
Filename C:\MUZIEK 1\Anthony Braxton - Birth And Rebirth(1978)[flac]\07 - Rebirth.wav
Pre-gap length 0:00:01.69
Peak level 100.0 %
Track quality 100.0 %
Test CRC FF1B436B
Copy CRC FF1B436B
Copy OK
No errors occured
End of status report
Any questions -> support@pro-jazz.com. По всем вопросам пишите -> support@pro-jazz.com
14:27
209
Нет комментариев. Ваш будет первым!