Вы используете незарегистрированную версию компонента "Вкладки"!

Поиск

(Avant-Garde Jazz) Food - Last Supper - 2004, FLAC (tracks+.cue), lossless

(Avant-Garde Jazz) Food - Last Supper - 2004, FLAC (tracks+.cue), lossless
Треклист:
Food - Last Supper
Жанр: Avant-Garde Jazz
Год выпуска диска: 2004
Производитель диска: Europe
Аудио кодек: FLAC
Тип рипа: tracks+.cue
Битрейт аудио: lossless
Продолжительность: 39:04
Трэклист:
1. Exeter Opening (7:40)
2. Christ Cookies (4:47)
3 .Quinoa (3:56)
4. Temporary (1:17)
5. Junkfood (1:44)
6 .Daddycation (4:04)
7. Exeter Ending (6:52)
8. First Supper (2:32)
9. Last Supper (6:06)
Доп. информация:
Label: Rune Grammofon
Catalog#: RCD 2041
Rip с фирменного CD из собственной коллекции
Credits:
Mats Eilertsen -bass, electronics
Thomas Strønen -drums, electronics
Iain Ballamy -saxophones, electronics
Arve Henriksen - trumpet, voice, electronics
 
Log file:
Отчёт EAC об извлечении, выполненном 22. августа 2009, 22:40 для диска:
Food / Last Supper
Дисковод: MATSHITABD-MLT UJ-210S Adapter: 0 ID: 0
Режим чтения: Достоверный (C2: нет, Точный поток: да, Отключение кэша: да)
Коррекция смещения при чтении: 102
Способность читать области Lead-in и Lead-out : Нет
Выходной формат: Внутренние WAV-операции
44.100 Гц; 16 бит; стерео
Другие параметры:
Заполнение пропущенных сэмплов тишиной : Да
Удаление блоков с тишиной в начале и конце : Нет
Встроенный Win32-интерфейс для Win NT/2000
Трек 1
Имя файла J:\temp\Food - Last Supper\01. Exeter Opening.wav
Длина предзазора 0:00:02.00
Пиковый уровень 96.6 %
Качество трека 100.0 %
CRC теста 8479B157
CRC копии 8479B157
Копирование... OK
Трек 2
Имя файла J:\temp\Food - Last Supper\02. Christcookies.wav
Пиковый уровень 96.6 %
Качество трека 100.0 %
CRC теста BB7BC861
CRC копии BB7BC861
Копирование... OK
Трек 3
Имя файла J:\temp\Food - Last Supper\03. Quinoa.wav
Пиковый уровень 96.6 %
Качество трека 100.0 %
CRC теста 64B98B9C
CRC копии 64B98B9C
Копирование... OK
Трек 4
Имя файла J:\temp\Food - Last Supper\04. Temporary.wav
Пиковый уровень 96.6 %
Качество трека 100.0 %
CRC теста AEED9C42
CRC копии AEED9C42
Копирование... OK
Трек 5
Имя файла J:\temp\Food - Last Supper\05. Junkfood.wav
Пиковый уровень 96.6 %
Качество трека 100.0 %
CRC теста 95F0429C
CRC копии 95F0429C
Копирование... OK
Трек 6
Имя файла J:\temp\Food - Last Supper\06. Daddycation.wav
Пиковый уровень 96.5 %
Качество трека 100.0 %
CRC теста 8EE2D176
CRC копии 8EE2D176
Копирование... OK
Трек 7
Имя файла J:\temp\Food - Last Supper\07. Exeter Ending.wav
Пиковый уровень 96.6 %
Качество трека 100.0 %
CRC теста 630C51AB
CRC копии 630C51AB
Копирование... OK
Трек 8
Имя файла J:\temp\Food - Last Supper\08. First Supper.wav
Пиковый уровень 96.6 %
Качество трека 100.0 %
CRC теста AC97DF7D
CRC копии AC97DF7D
Копирование... OK
Трек 9
Имя файла J:\temp\Food - Last Supper\09. Last Supper.wav
Пиковый уровень 96.6 %
Качество трека 100.0 %
CRC теста 832A747C
CRC копии 832A747C
Копирование... OK
Ошибок не произошло
Конец отчёта
Any questions -> support@pro-jazz.com. По всем вопросам пишите -> support@pro-jazz.com
14:24
154
Нет комментариев. Ваш будет первым!