Вы используете незарегистрированную версию компонента "Вкладки"!

Поиск

(avant-garde jazz, modern creative) Taku Sugimoto - Opposite - 1998, FLAC (tracks+.cue), lossless

Треклист:
Taku Sugimoto - Opposite
жанр: avant-garde jazz, modern creative
страна-производитель диска: switzerland
год издания диска: 1998
издатель (лейбл): hat hut ltd.
номер по каталогу: hatnoir 802
страна: japan
аудиокодек: flac (*.flac)
тип рипа: tracks+.cue
битрейт аудио: lossless
продолжительность: 00:48:01
источник [релизёр]: what.cd [denti]
наличие сканов в содержимом раздачи: нет
1. mirrors
2. bells of …
3. flagments of happiness
4. spoon river i
5. spring
6. midnoon
7. opposite
8. subtle
9. birds of afternoon
10. stained glass windows
11. a narrow path
12. transylvania
13. paris
14. spoon river ii
15. monad
16. treading
17. pale light
18. a day book
19. at the corner
20. to ward
 
лог создания рипа
Exact Audio Copy V1.0 beta 1 from 15. November 2010
EAC extraction logfile from 15. April 2011, 9:47
Taku Sugimoto / Opposite
Used drive : TSSTcorpCD/DVDW SH-S182D Adapter: 1 ID: 0
Read mode : Secure
Utilize accurate stream : Yes
Defeat audio cache : Yes
Make use of C2 pointers : No
Read offset correction : 6
Overread into Lead-In and Lead-Out : No
Fill up missing offset samples with silence : Yes
Delete leading and trailing silent blocks : No
Null samples used in CRC calculations : Yes
Used interface : Native Win32 interface for Win NT & 2000
Gap handling : Appended to previous track
Used output format : User Defined Encoder
Selected bitrate : 128 kBit/s
Quality : High
Add ID3 tag : No
Command line compressor : C:\Program Files\Exact Audio Copy\Flac\flac.exe
Additional command line options : -V -8 -T "artist=%a" -T "title=%t" -T "album=%g" -T "date=%y" -T "tracknumber=%n" -T "genre=%m" %s
TOC of the extracted CD
Track | Start | Length | Start sector | End sector
---------------------------------------------------------
1 | 0:00.00 | 1:08.62 | 0 | 5161
2 | 1:08.62 | 4:05.00 | 5162 | 23536
3 | 5:13.62 | 1:35.00 | 23537 | 30661
4 | 6:48.62 | 3:57.00 | 30662 | 48436
5 | 10:45.62 | 3:22.00 | 48437 | 63586
6 | 14:07.62 | 1:43.38 | 63587 | 71349
7 | 15:51.25 | 0:45.37 | 71350 | 74761
8 | 16:36.62 | 1:37.00 | 74762 | 82036
9 | 18:13.62 | 1:32.00 | 82037 | 88936
10 | 19:45.62 | 1:21.00 | 88937 | 95011
11 | 21:06.62 | 1:32.00 | 95012 | 101911
12 | 22:38.62 | 2:34.00 | 101912 | 113461
13 | 25:12.62 | 1:31.00 | 113462 | 120286
14 | 26:43.62 | 3:17.00 | 120287 | 135061
15 | 30:00.62 | 8:49.00 | 135062 | 174736
16 | 38:49.62 | 2:22.00 | 174737 | 185386
17 | 41:11.62 | 1:33.00 | 185387 | 192361
18 | 42:44.62 | 2:04.00 | 192362 | 201661
19 | 44:48.62 | 2:01.00 | 201662 | 210736
20 | 46:49.62 | 1:11.13 | 210737 | 216074
Track 1
Filename F:\EACrips\Taku Sugimoto - 1998 - Opposite\01 - Mirrors.wav
Pre-gap length 0:00:02.00
Peak level 55.5 %
Extraction speed 3.2 X
Track quality 100.0 %
Test CRC F73DC089
Copy CRC F73DC089
Track not present in AccurateRip database
Copy OK
Track 2
Filename F:\EACrips\Taku Sugimoto - 1998 - Opposite\02 - Bells of ....wav
Peak level 73.2 %
Extraction speed 4.6 X
Track quality 100.0 %
Test CRC 70741B1A
Copy CRC 70741B1A
Track not present in AccurateRip database
Copy OK
Track 3
Filename F:\EACrips\Taku Sugimoto - 1998 - Opposite\03 - Flagments of Happiness.wav
Peak level 29.3 %
Extraction speed 3.9 X
Track quality 100.0 %
Test CRC 09C19AFE
Copy CRC 09C19AFE
Track not present in AccurateRip database
Copy OK
Track 4
Filename F:\EACrips\Taku Sugimoto - 1998 - Opposite\04 - Spoon River I.wav
Peak level 71.2 %
Extraction speed 5.2 X
Track quality 100.0 %
Test CRC DAD3D983
Copy CRC DAD3D983
Track not present in AccurateRip database
Copy OK
Track 5
Filename F:\EACrips\Taku Sugimoto - 1998 - Opposite\05 - Spring.wav
Peak level 50.2 %
Extraction speed 5.4 X
Track quality 100.0 %
Test CRC AECCEBAA
Copy CRC AECCEBAA
Track not present in AccurateRip database
Copy OK
Track 6
Filename F:\EACrips\Taku Sugimoto - 1998 - Opposite\06 - Midnoon.wav
Peak level 50.5 %
Extraction speed 4.8 X
Track quality 100.0 %
Test CRC 030A8F23
Copy CRC 030A8F23
Track not present in AccurateRip database
Copy OK
Track 7
Filename F:\EACrips\Taku Sugimoto - 1998 - Opposite\07 - Opposite.wav
Peak level 85.3 %
Extraction speed 2.4 X
Track quality 99.7 %
Test CRC C45978CA
Copy CRC C45978CA
Track not present in AccurateRip database
Copy OK
Track 8
Filename F:\EACrips\Taku Sugimoto - 1998 - Opposite\08 - Subtle.wav
Peak level 31.8 %
Extraction speed 4.8 X
Track quality 100.0 %
Test CRC C770394D
Copy CRC C770394D
Track not present in AccurateRip database
Copy OK
Track 9
Filename F:\EACrips\Taku Sugimoto - 1998 - Opposite\09 - Birds of Afternoon.wav
Peak level 50.7 %
Extraction speed 4.8 X
Track quality 100.0 %
Test CRC A92F02CF
Copy CRC A92F02CF
Track not present in AccurateRip database
Copy OK
Track 10
Filename F:\EACrips\Taku Sugimoto - 1998 - Opposite\10 - Stained Glass Windows.wav
Peak level 88.4 %
Extraction speed 3.6 X
Track quality 99.8 %
Test CRC 82D82024
Copy CRC 82D82024
Track not present in AccurateRip database
Copy OK
Track 11
Filename F:\EACrips\Taku Sugimoto - 1998 - Opposite\11 - A Narrow Path.wav
Peak level 30.1 %
Extraction speed 4.9 X
Track quality 100.0 %
Test CRC 74D57E7E
Copy CRC 74D57E7E
Track not present in AccurateRip database
Copy OK
Track 12
Filename F:\EACrips\Taku Sugimoto - 1998 - Opposite\12 - Tansylvania.wav
Peak level 55.7 %
Extraction speed 5.9 X
Track quality 100.0 %
Test CRC 8BEF5492
Copy CRC 8BEF5492
Track not present in AccurateRip database
Copy OK
Track 13
Filename F:\EACrips\Taku Sugimoto - 1998 - Opposite\13 - Paris.wav
Peak level 90.5 %
Extraction speed 4.1 X
Track quality 99.8 %
Test CRC FA7DDDF7
Copy CRC FA7DDDF7
Track not present in AccurateRip database
Copy OK
Track 14
Filename F:\EACrips\Taku Sugimoto - 1998 - Opposite\14 - Spoon River II.wav
Peak level 67.1 %
Extraction speed 6.5 X
Track quality 100.0 %
Test CRC 494D1CE2
Copy CRC 494D1CE2
Track not present in AccurateRip database
Copy OK
Track 15
Filename F:\EACrips\Taku Sugimoto - 1998 - Opposite\15 - Monad.wav
Peak level 86.5 %
Extraction speed 7.3 X
Track quality 99.9 %
Test CRC CCEC0846
Copy CRC CCEC0846
Track not present in AccurateRip database
Copy OK
Track 16
Filename F:\EACrips\Taku Sugimoto - 1998 - Opposite\16 - Treading.wav
Peak level 30.0 %
Extraction speed 6.8 X
Track quality 100.0 %
Test CRC E39C324B
Copy CRC E39C324B
Track not present in AccurateRip database
Copy OK
Track 17
Filename F:\EACrips\Taku Sugimoto - 1998 - Opposite\17 - Pale Light.wav
Peak level 57.3 %
Extraction speed 6.0 X
Track quality 100.0 %
Test CRC 7D75D8FC
Copy CRC 7D75D8FC
Track not present in AccurateRip database
Copy OK
Track 18
Filename F:\EACrips\Taku Sugimoto - 1998 - Opposite\18 - A Day Book.wav
Peak level 47.7 %
Extraction speed 6.8 X
Track quality 100.0 %
Test CRC 7F404FE2
Copy CRC 7F404FE2
Track not present in AccurateRip database
Copy OK
Track 19
Filename F:\EACrips\Taku Sugimoto - 1998 - Opposite\19 - At the Corner.wav
Peak level 83.5 %
Extraction speed 6.8 X
Track quality 100.0 %
Test CRC D7A3B017
Copy CRC D7A3B017
Track not present in AccurateRip database
Copy OK
Track 20
Filename F:\EACrips\Taku Sugimoto - 1998 - Opposite\20 - To Ward.wav
Peak level 67.5 %
Extraction speed 5.8 X
Track quality 100.0 %
Test CRC EAC86B60
Copy CRC EAC86B60
Track not present in AccurateRip database
Copy OK
None of the tracks are present in the AccurateRip database
No errors occurred
End of status report
==== Log checksum 67FCFC4298CBA871D72598ADAAE6357F969F502336EB16FC3D3D8403E6D4D3B7 ====
 
содержание индексной карты (.cue)
REM GENRE Avantgarde
REM DATE 1998
REM DISCID 0F0B4114
REM COMMENT "ExactAudioCopy v1.0b1"
FILE "01 - Mirrors.flac" WAVE
TRACK 01 AUDIO
INDEX 01 00:00:00
FILE "02 - Bells of ....flac" WAVE
TRACK 02 AUDIO
INDEX 01 00:00:00
FILE "03 - Flagments of Happiness.flac" WAVE
TRACK 03 AUDIO
INDEX 01 00:00:00
FILE "04 - Spoon River I.flac" WAVE
TRACK 04 AUDIO
INDEX 01 00:00:00
FILE "05 - Spring.flac" WAVE
TRACK 05 AUDIO
INDEX 01 00:00:00
FILE "06 - Midnoon.flac" WAVE
TRACK 06 AUDIO
INDEX 01 00:00:00
FILE "07 - Opposite.flac" WAVE
TRACK 07 AUDIO
INDEX 01 00:00:00
FILE "08 - Subtle.flac" WAVE
TRACK 08 AUDIO
INDEX 01 00:00:00
FILE "09 - Birds of Afternoon.flac" WAVE
TRACK 09 AUDIO
INDEX 01 00:00:00
FILE "10 - Stained Glass Windows.flac" WAVE
TRACK 10 AUDIO
INDEX 01 00:00:00
FILE "11 - A Narrow Path.flac" WAVE
TRACK 11 AUDIO
INDEX 01 00:00:00
FILE "12 - Tansylvania.flac" WAVE
TRACK 12 AUDIO
INDEX 01 00:00:00
FILE "13 - Paris.flac" WAVE
TRACK 13 AUDIO
INDEX 01 00:00:00
FILE "14 - Spoon River II.flac" WAVE
TRACK 14 AUDIO
INDEX 01 00:00:00
FILE "15 - Monad.flac" WAVE
TRACK 15 AUDIO
INDEX 01 00:00:00
FILE "16 - Treading.flac" WAVE
TRACK 16 AUDIO
INDEX 01 00:00:00
FILE "17 - Pale Light.flac" WAVE
TRACK 17 AUDIO
INDEX 01 00:00:00
FILE "18 - A Day Book.flac" WAVE
TRACK 18 AUDIO
INDEX 01 00:00:00
FILE "19 - At the Corner.flac" WAVE
TRACK 19 AUDIO
INDEX 01 00:00:00
FILE "20 - To Ward.flac" WAVE
TRACK 20 AUDIO
INDEX 01 00:00:00
Any questions -> support@pro-jazz.com. По всем вопросам пишите -> support@pro-jazz.com
15:00
171
Нет комментариев. Ваш будет первым!