Вы используете незарегистрированную версию компонента "Вкладки"!

Поиск

(Modern Creative, Orchestral Jazz, Progressive Jazz, Saxophone Jazz) James Carter - Caribbean Rhapsody (Concerto for saxophones and orchestra) - 2011, APE (image+.cue), lossless

(Modern Creative, Orchestral Jazz, Progressive Jazz, Saxophone Jazz) James Carter - Caribbean Rhapsody (Concerto for saxophones and orchestra) - 2011, APE (image+.cue), lossless
Треклист:
James Carter / Caribbean Rhapsody (Concerto for saxophones and orchestra)
Жанр: Modern Creative, Orchestral Jazz, Progressive Jazz, Saxophone Jazz
Страна-производитель диска: Россия (пиратка)
Год издания диска: 2011
Аудиокодек: APE (*.ape)
Тип рипа: image+.cue
Битрейт аудио: lossless
Продолжительность: 45:03
Источник (релизер): мой рип
Наличие сканов в содержимом раздачи: нет
Треклист:
1. Ritmico
2. Tender
3. Playful - Fast (with swing)
4. Tenor Interlude
5. Caribbean Rhapsody
6. Soprano Epilogue
 
Лог создания рипа
Exact Audio Copy V0.99 prebeta 5 from 4. May 2009
Отчёт EAC об извлечении, выполненном 17. июля 2011, 21:29
James Carter / Caribbean Rhapsody
Дисковод: SlimtypeDVD A DS8A2S Adapter: 1 ID: 0
Режим чтения : Достоверность
Использование точного потока : Да
Отключение кэша аудио : Да
Использование указателей C2 : Нет
Коррекция смещения при чтении : 6
Способность читать области Lead-in и Lead-out : Нет
Заполнение пропущенных сэмплов тишиной : Да
Удаление блоков с тишиной в начале и конце : Нет
При вычислениях CRC использовались нулевые сэмплы : Да
Интерфейс : Встроенный Win32-интерфейс для Win NT/2000
Выходной формат : Внутренние WAV-операции
Формат сэмплов : 44.100 Гц; 16 бит; стерео
TOC извлечённого CD
Трек | Старт | Длительность | Начальный сектор | Конечный сектор
---------------------------------------------------------------------
1 | 0:00.00 | 4:52.44 | 0 | 21943
2 | 4:52.44 | 7:04.65 | 21944 | 53808
3 | 11:57.34 | 7:39.17 | 53809 | 88250
4 | 19:36.51 | 5:34.09 | 88251 | 113309
5 | 25:10.60 | 13:37.50 | 113310 | 174634
6 | 38:48.35 | 6:14.16 | 174635 | 202700
Характеристики диапазона извлечения и сообщения об ошибках
Выбранный диапазон
Имя файла D:\lossless\James Carter - Caribbean Rhapsody.wav
Пиковый уровень 98.1 %
Качество диапазона 99.9 %
CRC копии ECEBD187
Копирование... OK
Ошибок не произошло
Конец отчёта
кто прослушал - помогите с определением жанра))
Any questions -> support@pro-jazz.com. По всем вопросам пишите -> support@pro-jazz.com
15:01
315
Нет комментариев. Ваш будет первым!