Вы используете незарегистрированную версию компонента "Вкладки"!

Поиск

(Avant-Garde Jazz) John Lindberg Ensemble - Bounce - 1997, FLAC (tracks+.cue), lossless

(Avant-Garde Jazz) John Lindberg Ensemble - Bounce - 1997, FLAC (tracks+.cue), lossless
Треклист:
John Lindberg Ensemble - Bounce
Жанр: Avant-Garde Jazz
Страна-производитель диска: Italy
Год издания диска: 1997
Издатель (лейбл): Black Saint Records
Номер по каталогу: BSR 120 192-2
Аудиокодек: FLAC (*.flac)
Тип рипа: tracks+.cue
Битрейт аудио: lossless
Продолжительность: 55:45
Источник (релизер): собственный рип с оригинального диска.
Наличие сканов в содержимом раздачи: да
Треклист:
01. Firewood Duet 6:26
02. The Terrace 9:35
03. Bounce 7:21
04. Fortuen on a Sphere 8:47
05. Common Goal 7:34
06. Eleven Thrice 7:31
07. Off Right 8:33
 
Лог создания рипа
Exact Audio Copy V0.99 prebeta 5 from 4. May 2009
EAC extraction logfile from 16. July 2011, 21:39
John Lindberg Ensemble / Bounce
Used drive : TSSTcorpCDDVDW SH-S222A Adapter: 1 ID: 0
Read mode : Secure
Utilize accurate stream : Yes
Defeat audio cache : Yes
Make use of C2 pointers : No
Read offset correction : 6
Overread into Lead-In and Lead-Out : No
Fill up missing offset samples with silence : Yes
Delete leading and trailing silent blocks : No
Null samples used in CRC calculations : Yes
Used interface : Installed external ASPI interface
Gap handling : Appended to previous track
Used output format : User Defined Encoder
Selected bitrate : 768 kBit/s
Quality : High
Add ID3 tag : No
Command line compressor : C:\Tool\Compress\FLAC\flac.exe
Additional command line options : -8 -V -T "ARTIST=%a" -T "TITLE=%t" -T "ALBUM=%g" -T "DATE=%y" -T "TRACKNUMBER=%n" -T "TOTALTRACKS=%x" -T "GENRE=%m" -T "ALBUM ARTIST=%v" -T "COMMENT=EAC V0.99 prebeta 5, Secure Mode, Test & Copy, AccurateRip, FLAC -8" %s
TOC of the extracted CD
Track | Start | Length | Start sector | End sector
---------------------------------------------------------
1 | 0:00.00 | 6:24.00 | 0 | 28799
2 | 6:24.00 | 9:35.32 | 28800 | 71956
3 | 15:59.32 | 7:21.63 | 71957 | 105094
4 | 23:21.20 | 8:47.12 | 105095 | 144631
5 | 32:08.32 | 7:34.60 | 144632 | 178741
6 | 39:43.17 | 7:31.48 | 178742 | 212614
7 | 47:14.65 | 8:33.02 | 212615 | 251091
Track 1
Filename C:\! UPLOAD\John Lindberg Ensemble - Bounce (1997) [FLAC] {Black Saint}\01 - Firewood Duet.wav
Pre-gap length 0:00:02.00
Peak level 99.9 %
Track quality 100.0 %
Test CRC 61A3DC67
Copy CRC 61A3DC67
Accurately ripped (confidence 4) [02FD9BC2]
Copy OK
Track 2
Filename C:\! UPLOAD\John Lindberg Ensemble - Bounce (1997) [FLAC] {Black Saint}\02 - The Terrace.wav
Peak level 99.9 %
Track quality 100.0 %
Test CRC 19E1943C
Copy CRC 19E1943C
Accurately ripped (confidence 4) [F734D2B0]
Copy OK
Track 3
Filename C:\! UPLOAD\John Lindberg Ensemble - Bounce (1997) [FLAC] {Black Saint}\03 - Bounce.wav
Peak level 99.9 %
Track quality 100.0 %
Test CRC D5F4EC00
Copy CRC D5F4EC00
Accurately ripped (confidence 4) [18D4D361]
Copy OK
Track 4
Filename C:\! UPLOAD\John Lindberg Ensemble - Bounce (1997) [FLAC] {Black Saint}\04 - Fortune On A Sphere.wav
Peak level 87.0 %
Track quality 100.0 %
Test CRC AB875E85
Copy CRC AB875E85
Accurately ripped (confidence 4) [F237F921]
Copy OK
Track 5
Filename C:\! UPLOAD\John Lindberg Ensemble - Bounce (1997) [FLAC] {Black Saint}\05 - Common Goal.wav
Peak level 99.9 %
Track quality 100.0 %
Test CRC 690C7922
Copy CRC 690C7922
Accurately ripped (confidence 4) [415150BC]
Copy OK
Track 6
Filename C:\! UPLOAD\John Lindberg Ensemble - Bounce (1997) [FLAC] {Black Saint}\06 - Eleven Thrice.wav
Peak level 99.9 %
Track quality 100.0 %
Test CRC E53D7B96
Copy CRC E53D7B96
Accurately ripped (confidence 4) [09C775CE]
Copy OK
Track 7
Filename C:\! UPLOAD\John Lindberg Ensemble - Bounce (1997) [FLAC] {Black Saint}\07 - Off Right.wav
Peak level 99.9 %
Track quality 99.9 %
Test CRC CA935835
Copy CRC CA935835
Accurately ripped (confidence 4) [53D258E8]
Copy OK
All tracks accurately ripped
No errors occurred
End of status report
 
Содержание индексной карты (.CUE)
REM GENRE Jazz
REM DATE 1997
REM DISCID 5D0D1307
REM COMMENT "ExactAudioCopy v0.99pb5"
PERFORMER "John Lindberg Ensemble"
TITLE "Bounce"
FILE "01 - Firewood Duet.wav" WAVE
TRACK 01 AUDIO
TITLE "Firewood Duet"
PERFORMER "John Lindberg Ensemble"
INDEX 01 00:00:00
FILE "02 - The Terrace.wav" WAVE
TRACK 02 AUDIO
TITLE "The Terrace"
PERFORMER "John Lindberg Ensemble"
INDEX 01 00:00:00
FILE "03 - Bounce.wav" WAVE
TRACK 03 AUDIO
TITLE "Bounce"
PERFORMER "John Lindberg Ensemble"
INDEX 01 00:00:00
FILE "04 - Fortune On A Sphere.wav" WAVE
TRACK 04 AUDIO
TITLE "Fortune On A Sphere"
PERFORMER "John Lindberg Ensemble"
INDEX 01 00:00:00
FILE "05 - Common Goal.wav" WAVE
TRACK 05 AUDIO
TITLE "Common Goal"
PERFORMER "John Lindberg Ensemble"
INDEX 01 00:00:00
FILE "06 - Eleven Thrice.wav" WAVE
TRACK 06 AUDIO
TITLE "Eleven Thrice"
PERFORMER "John Lindberg Ensemble"
INDEX 01 00:00:00
FILE "07 - Off Right.wav" WAVE
TRACK 07 AUDIO
TITLE "Off Right"
PERFORMER "John Lindberg Ensemble"
INDEX 01 00:00:00
Доп. информация:
Recorded on February 24, 1997 at Mu Rec Studio, Milano
 
Состав
John Lindberg - bass
Dave Douglas - trumpet
Larry Ochs - saxes
Ed Thigpen - drums
Any questions -> support@pro-jazz.com. По всем вопросам пишите -> support@pro-jazz.com
15:00
194
Нет комментариев. Ваш будет первым!