Поиск

(Avant-Garde Jazz, Modern Creative) Gebhard Ullmann, Chris Dahlgren, Peter Herbert - bassX3 {Drimala} - 2004, FLAC (tracks+.cue), lossless

(Avant-Garde Jazz, Modern Creative) Gebhard Ullmann, Chris Dahlgren, Peter Herbert - bassX3 {Drimala} - 2004, FLAC (tracks+.cue), lossless
Треклист:
Gebhard Ullmann, Chris Dahlgren, Peter Herbert
bassX3


Жанр: Avant-Garde Jazz, Modern Creative
Год выпуска диска: 2004
Производитель диска: USA
Аудио кодек: FLAC
Тип рипа: tracks+.cue
Битрейт аудио: lossless
Продолжительность: 54:10
Gebhard Ullmann - bass flute, bass clarinet
Chris Dahlgren - double bass, toys, electronics
Peter Herbert - double bass
1. Nummer Sieben - 7:34
2. Gross und Klein - 7:15
3. Small Birds / DreiHolz - 8:06
4. bassX3 - 7:00
5. Blue Mint - 5:07
6. Red - 6:11
7. Yeah Mbira - 5:47
8. Slowliness in Green and Yellow - 7:10
All compositions by Gebhard Ullmann, R. Chris Dahlgren and Peter Herbert.
Recorded direct to 2-track at 223, Washington Studios, Brooklyn June 13, 2001.
Engineer Per Christianson.
Mastering by Jens Trondle, Berlin, January 15, 2004.
Produced by Gebhard Ullmann.
2004, Drimala Records
DR 04-347-07
 
EAC extraction logfile from 1. October 2009, 21:32
Exact Audio Copy V0.99 prebeta 5 from 4. May 2009
EAC extraction logfile from 1. October 2009, 21:32
Gebhard Ullmann, Chris Dahlgren, Peter Herbert / BassX3
Used drive : PLEXTOR DVDR PX-760A Adapter: 0 ID: 0
Read mode : Secure
Utilize accurate stream : Yes
Defeat audio cache : Yes
Make use of C2 pointers : No
Read offset correction : 30
Overread into Lead-In and Lead-Out : Yes
Fill up missing offset samples with silence : Yes
Delete leading and trailing silent blocks : No
Null samples used in CRC calculations : Yes
Used interface : Native Win32 interface for Win NT & 2000
Gap handling : Appended to previous track
Used output format : User Defined Encoder
Selected bitrate : 128 kBit/s
Quality : High
Add ID3 tag : No
Command line compressor : C:\Program Files\FLAC\bin\flac.exe
Additional command line options : -8 -V -T "ARTIST=%a" -T "TITLE=%t" -T "ALBUM=%g" -T "DATE=%y" -T "TRACKNUMBER=%n" -T "GENRE=%m" %s
TOC of the extracted CD
Track | Start | Length | Start sector | End sector
---------------------------------------------------------
1 | 0:00.00 | 7:34.06 | 0 | 34055
2 | 7:34.06 | 7:15.52 | 34056 | 66732
3 | 14:49.58 | 8:05.19 | 66733 | 103126
4 | 22:55.02 | 7:00.07 | 103127 | 134633
5 | 29:55.09 | 5:07.17 | 134634 | 157675
6 | 35:02.26 | 6:11.14 | 157676 | 185514
7 | 41:13.40 | 5:46.64 | 185515 | 211528
8 | 47:00.29 | 7:09.70 | 211529 | 243773
Track 1
Filename H:\Gebhard Ullmann, Chris Dahlgren, Peter Herbert - BassX3 (2004) [FLAC]\01 - Nummer Sieben.wav
Pre-gap length 0:00:02.00
Peak level 99.9 %
Track quality 100.0 %
Test CRC 38143AA9
Copy CRC 38143AA9
Accurately ripped (confidence 1) [A566CE1D]
Copy OK
Track 2
Filename H:\Gebhard Ullmann, Chris Dahlgren, Peter Herbert - BassX3 (2004) [FLAC]\02 - Gross und Klein.wav
Peak level 99.9 %
Track quality 100.0 %
Test CRC 7F552ED3
Copy CRC 7F552ED3
Accurately ripped (confidence 1) [3AA39A58]
Copy OK
Track 3
Filename H:\Gebhard Ullmann, Chris Dahlgren, Peter Herbert - BassX3 (2004) [FLAC]\03 - Small Birds - DreiHolz.wav
Pre-gap length 0:00:06.00
Peak level 99.9 %
Track quality 100.0 %
Test CRC 14C9BE95
Copy CRC 14C9BE95
Accurately ripped (confidence 1) [1BD0A141]
Copy OK
Track 4
Filename H:\Gebhard Ullmann, Chris Dahlgren, Peter Herbert - BassX3 (2004) [FLAC]\04 - bassX3.wav
Pre-gap length 0:00:06.00
Peak level 99.7 %
Track quality 100.0 %
Test CRC 36628327
Copy CRC 36628327
Accurately ripped (confidence 1) [631FC7B0]
Copy OK
Track 5
Filename H:\Gebhard Ullmann, Chris Dahlgren, Peter Herbert - BassX3 (2004) [FLAC]\05 - Blue Mint.wav
Pre-gap length 0:00:04.00
Peak level 99.9 %
Track quality 100.0 %
Test CRC F4912E0B
Copy CRC F4912E0B
Accurately ripped (confidence 1) [4589E35F]
Copy OK
Track 6
Filename H:\Gebhard Ullmann, Chris Dahlgren, Peter Herbert - BassX3 (2004) [FLAC]\06 - Red.wav
Pre-gap length 0:00:06.18
Peak level 99.9 %
Track quality 100.0 %
Test CRC 4E3E456F
Copy CRC 4E3E456F
Accurately ripped (confidence 1) [9E893311]
Copy OK
Track 7
Filename H:\Gebhard Ullmann, Chris Dahlgren, Peter Herbert - BassX3 (2004) [FLAC]\07 - Yeah Mbira.wav
Pre-gap length 0:00:05.00
Peak level 99.9 %
Track quality 100.0 %
Test CRC 17D4D1CD
Copy CRC 17D4D1CD
Accurately ripped (confidence 1) [D186567D]
Copy OK
Track 8
Filename H:\Gebhard Ullmann, Chris Dahlgren, Peter Herbert - BassX3 (2004) [FLAC]\08 - Slowliness In Green And Yellow.wav
Pre-gap length 0:00:03.00
Peak level 99.9 %
Track quality 100.0 %
Test CRC 9F271BE8
Copy CRC 9F271BE8
Accurately ripped (confidence 1) [AD29F5C0]
Copy OK
All tracks accurately ripped
No errors occurred
End of status report
Рип с фирменного диска.
По всем вопросам пишите личное сообщение пользователю M0p94ok.
15:16
150
Нет комментариев. Ваш будет первым!