Вы используете незарегистрированную версию компонента "Вкладки"!

Поиск

(Avant-Garde, Fusion, Experimental) David Torn - Door X - 1990, FLAC (image+.cue)

Треклист:
David Torn - Door X
Жанр: Avant-Garde, Fusion, Experimental
Год выпуска диска: 1990
Производитель диска: Россия
Аудио кодек: FLAC
Тип рипа: image+.cue
Продолжительность: 49:00
Трэклист:
1. Time Bomb 5:02
2. Lion Of Boaz 5:09
3. Voodoo Child (Slight Return) 5:36
4. The Others 5:00
5. Diamond Mansions 4:45
6. Good Morning, Mr. Wonderful 3:36
7. Brave Light Of Sun 4:45
8. Promise 4:39
9. Taste Of Roses 4:39
10. Door X 5:44
Доп. информация:
 
Отчёт EAC
Exact Audio Copy V0.99 prebeta 4 from 23. January 2008
Отчёт EAC об извлечении, выполненном 8. октября 2009, 23:32
DAVID TORN / Door X
Дисковод: TEAC CD-W516EB Adapter: 1 ID: 1
Режим чтения : Достоверность
Использование точного потока : Да
Отключение кэша аудио : Да
Использование указателей C2 : Нет
Коррекция смещения при чтении : 685
Способность читать области Lead-in и Lead-out : Нет
Заполнение пропущенных сэмплов тишиной : Да
Удаление блоков с тишиной в начале и конце : Нет
При вычислениях CRC использовались нулевые сэмплы : Да
Интерфейс : Установленный внешний ASPI-интерфейс
Выходной формат : Внутренние WAV-операции
Формат сэмплов : 44.100 Гц; 16 бит; стерео
TOC извлечённого CD
Трек | Старт | Длительность | Начальный сектор | Конечный сектор
---------------------------------------------------------------------
1 | 0:00.00 | 5:02.33 | 0 | 22682
2 | 5:02.33 | 5:09.50 | 22683 | 45907
3 | 10:12.08 | 5:36.57 | 45908 | 71164
4 | 15:48.65 | 5:00.13 | 71165 | 93677
5 | 20:49.03 | 4:45.42 | 93678 | 115094
6 | 25:34.45 | 3:36.03 | 115095 | 131297
7 | 29:10.48 | 4:45.72 | 131298 | 152744
8 | 33:56.45 | 4:39.48 | 152745 | 173717
9 | 38:36.18 | 4:39.17 | 173718 | 194659
10 | 43:15.35 | 5:44.40 | 194660 | 220499
Характеристики диапазона извлечения и сообщения об ошибках
Выбранный диапазон
Имя файла C:\Torrent\Downloads\DAVID TORN-Door X\DAVID TORN - Door X.wav
Пиковый уровень 95.8 %
Качество диапазона 100.0 %
CRC копии C04A22F6
Копирование... OK
Ошибок не произошло
Конец отчёта
 
Состав музыкантов и персонала
Credits:
Acoustic Guitar, Guitar, Percussion, Drums, Keyboards, Tabla, Vocals, Producer, Drums - David Torn (all tracks)
Bass, Composed By, Clarinet - Mick Karn (tracks 2,3,7,8,9)
Bass - Douglas Lunn (tracks 6,10)
Clarinet, Percussion, Piano, Trumpet, Drums, other voice - Antony Widoff (tracks 1,2,3,4,6,7,8,10)
Drums, Percussion - Bill Bruford (tracks 2,3,7,8)
Drums - Gary Burke (tracks 4,6)
Percussion, Drums - Geoffrey Gordon (tracks 4,5,9)
Percussion, Drums, Shaker - Kurt Wortman (tracks 1,9,10)
Trumpet - Chris Botti (track 4)
Other vocals - Vida Vierra (tracks 1,8)
Producer - David Torn and Stephen Krause
Engineer - Paul Antonelli , Scott Petito
Mastered By - Bernie Grundman
По всем вопросам пишите личное сообщение пользователю M0p94ok.
15:15
148
Нет комментариев. Ваш будет первым!