Вы используете незарегистрированную версию компонента "Вкладки"!

Поиск

(Avant-Garde Jazz) Lotte Anker, Craig Taborn, Gerald Cleaver – Live at the Loft - 2009, FLAC (tracks+.cue), lossless

(Avant-Garde Jazz) Lotte Anker, Craig Taborn, Gerald Cleaver – Live at the Loft - 2009, FLAC (tracks+.cue), lossless
Треклист:
Lotte Anker, Craig Taborn, Gerald Cleaver – Live at the Loft
Жанр: Avant-Garde Jazz
Год выпуска диска: 2009
Аудио кодек: FLAC
Тип рипа: tracks+.cue
Битрейт аудио: lossless
Трэклист:
1. Magic Carpet
2. Real Solid
3. Berber
Доп. информация:
Lotte Anker: alto and tenor saxophones
Craig Taborn: piano
Gerald Cleaver: drums
ILK Music
 
EAC log
Exact Audio Copy V0.99 prebeta 4 from 23. January 2008
EAC extraction logfile from 29. August 2009, 10:35
Lotte Anker_Craig Taborn_Gerald Cleaver / Live at the Loft
Used drive : TSSTcorpCDDVDW SH-S223F Adapter: 5 ID: 0
Read mode : Secure
Utilize accurate stream : Yes
Defeat audio cache : Yes
Make use of C2 pointers : No
Read offset correction : 6
Overread into Lead-In and Lead-Out : No
Fill up missing offset samples with silence : Yes
Delete leading and trailing silent blocks : No
Null samples used in CRC calculations : Yes
Used interface : Native Win32 interface for Win NT & 2000
Gap handling : Appended to previous track
Used output format : User Defined Encoder
Selected bitrate : 1024 kBit/s
Quality : High
Add ID3 tag : No
Command line compressor : C:\Program Files (x86)\Exact Audio Copy\FLAC\FLAC.EXE
Additional command line options : -V -8 -T "artist=%a" -T "title=%t" -T "album=%g" -T "date=%y" -T "tracknumber=%n" -T "genre=%m" %s
TOC of the extracted CD
Track | Start | Length | Start sector | End sector
---------------------------------------------------------
1 | 0:00.00 | 26:40.73 | 0 | 120072
2 | 26:40.73 | 20:24.24 | 120073 | 211896
3 | 47:05.22 | 8:18.68 | 211897 | 249314
Track 1
Filename P:\ T\  What\A\Lotte Anker_Craig Taborn_Gerald Cleaver - [2009] - Live at the Loft [FLAC]\01 - Lotte Anker_Craig Taborn_Gerald Cleaver - Magic Carpet.wav
Pre-gap length 0:00:02.00
Peak level 97.7 %
Track quality 100.0 %
Test CRC B882805A
Copy CRC B882805A
Track not present in AccurateRip database
Copy OK
Track 2
Filename P:\ T\  What\A\Lotte Anker_Craig Taborn_Gerald Cleaver - [2009] - Live at the Loft [FLAC]\02 - Lotte Anker_Craig Taborn_Gerald Cleaver - Real Solid.wav
Pre-gap length 0:00:03.13
Peak level 97.7 %
Track quality 99.9 %
Test CRC EAC9535B
Copy CRC EAC9535B
Track not present in AccurateRip database
Copy OK
Track 3
Filename P:\ T\  What\A\Lotte Anker_Craig Taborn_Gerald Cleaver - [2009] - Live at the Loft [FLAC]\03 - Lotte Anker_Craig Taborn_Gerald Cleaver - Berber.wav
Pre-gap length 0:00:04.44
Peak level 97.7 %
Track quality 100.0 %
Test CRC E1A9569F
Copy CRC E1A9569F
Track not present in AccurateRip database
Copy OK
None of the tracks are present in the AccurateRip database
No errors occurred
End of status report
не мой рип
По всем вопросам пишите личное сообщение пользователю M0p94ok.
15:15
135
Нет комментариев. Ваш будет первым!