Вы используете незарегистрированную версию компонента "Вкладки"!

Поиск

(Avant-Garde Jazz/Jazz-rock/Big Band) Flat Earth Society - Cheer Me, Perverts! - 2009, FLAC (tracks+.cue), lossless

Треклист:
Flat Earth Society - Cheer Me, Perverts!
Жанр: Avant-Garde Jazz/Jazz-rock/Big Band
Год выпуска диска: 2009
Производитель диска: Belgium
Аудио кодек: FLAC
Тип рипа: tracks+.cue
Битрейт аудио: lossless
Продолжительность: 01:01:05
Релиз: Count5 (what.cd)
Список песен:
01. (04:45) Vole Sperm Reverie
02. (06:02) Rearm, Get That Char!
03. (04:50) Kotopoulopology
04. (05:30) Blind Inside
05. (06:03) Bad Linen
06. (08:43) Too Sublime In Sin
07. (03:26) Dawn On The Desert
08. (05:12) Flatology
09. (08:27) Smoke On Fire, The King Is Burning
10. (08:08) Mutt
Состав группы:
Stefaan Blancke (trombone)
Benjamin Boutreur (saxophone)
David Bovée (guitar)
Jan De Backer (trombone)
Leonaar De Graeve (tuba)
Berlinde Deman (tuba)
Anja Kowalski (vocals, keyboards)
Pieter Lamotte (bass-trombone)
Bart Maris (trumpet)
Michel Mast (sax)
Marc Meeuwissen (trombone)
Eric Morel (sax)
Roel Poriau (percussion)
Kristof Roseeuw (double bass)
Peter Vandenberghe (keyboards)
Danny Van Hoeck (percussion)
Luc Van Lieshout (trumpet)
Bruno Vansina (sax)
Teun Verbruggen (percussion)
Peter Vermeersch (clarinet)
Pierre Vervloesem (guitar)
Wim Willaert (accordion)
Tom Wouters (clarinet, percussion)
 
Лог XLD
X Lossless Decoder version 20090930 (110.0)
XLD extraction logfile from 2009-10-06 20:16:35 -0700
Flat Earth Society / Cheer Me, Perverts!
Used drive : MATSHITA DVD-R UJ-867 (revision HA13)
Use cdparanoia mode : YES (CDParanoia III 10.2 engine)
Disable audio cache : OK for the drive with cache less than 2750KB
Make use of C2 pointers : NO
Read offset correction : 102
Max retry count : 100
TOC of the extracted CD
Track | Start | Length | Start sector | End sector
---------------------------------------------------------
1 | 00:00:00 | 04:45:20 | 0 | 21394
2 | 04:45:20 | 06:02:20 | 21395 | 48564
3 | 10:47:40 | 04:49:38 | 48565 | 70277
4 | 15:37:03 | 05:30:03 | 70278 | 95030
5 | 21:07:06 | 06:02:58 | 95031 | 122238
6 | 27:09:64 | 08:42:71 | 122239 | 161459
7 | 35:52:60 | 03:25:71 | 161460 | 176905
8 | 39:18:56 | 05:12:05 | 176906 | 200310
9 | 44:30:61 | 08:26:60 | 200311 | 238320
10 | 52:57:46 | 08:07:72 | 238321 | 274917
All Tracks
Album gain : -8.17 dB
Peak : 0.988770
Track 01
Filename : /Users/thomasshea/Desktop/Flat Earth Society - Cheer Me, Perverts! [FLAC] (What.cd)/01 Flat Earth Society - Vole Sperm Reverie.flac
Track gain : -8.05 dB
Peak : 0.988739
CRC32 hash (test run) : ED711DD8
CRC32 hash : ED711DD8
CRC32 hash (skip zero) : 226BD04B
AccurateRip signature : 5E5AE2F4
->Accurately ripped! (confidence 1)
Statistics
Read error : 0
Skipped (treated as error) : 0
Edge jitter error (maybe fixed) : 0
Atom jitter error (maybe fixed) : 0
Drift error (maybe fixed) : 0
Dropped bytes error (maybe fixed) : 0
Duplicated bytes error (maybe fixed) : 0
Track 02
Filename : /Users/thomasshea/Desktop/Flat Earth Society - Cheer Me, Perverts! [FLAC] (What.cd)/02 Flat Earth Society - Rearm, Get That Char!.flac
Track gain : -9.27 dB
Peak : 0.988739
CRC32 hash (test run) : 0BEFB88B
CRC32 hash : 0BEFB88B
CRC32 hash (skip zero) : 73C999F4
AccurateRip signature : 7735BC74
->Accurately ripped! (confidence 1)
Statistics
Read error : 0
Skipped (treated as error) : 0
Edge jitter error (maybe fixed) : 0
Atom jitter error (maybe fixed) : 0
Drift error (maybe fixed) : 0
Dropped bytes error (maybe fixed) : 0
Duplicated bytes error (maybe fixed) : 0
Track 03
Filename : /Users/thomasshea/Desktop/Flat Earth Society - Cheer Me, Perverts! [FLAC] (What.cd)/03 Flat Earth Society - Kotopoulopology.flac
Track gain : -7.21 dB
Peak : 0.988708
CRC32 hash (test run) : 50DC0C41
CRC32 hash : 50DC0C41
CRC32 hash (skip zero) : 2CC5F719
AccurateRip signature : 125A0F41
->Accurately ripped! (confidence 1)
Statistics
Read error : 0
Skipped (treated as error) : 0
Edge jitter error (maybe fixed) : 0
Atom jitter error (maybe fixed) : 0
Drift error (maybe fixed) : 0
Dropped bytes error (maybe fixed) : 0
Duplicated bytes error (maybe fixed) : 0
Track 04
Filename : /Users/thomasshea/Desktop/Flat Earth Society - Cheer Me, Perverts! [FLAC] (What.cd)/04 Flat Earth Society - Blind Inside.flac
Track gain : -7.77 dB
Peak : 0.988739
CRC32 hash (test run) : A2054423
CRC32 hash : A2054423
CRC32 hash (skip zero) : 91D2621B
AccurateRip signature : D696CECD
->Accurately ripped! (confidence 1)
Statistics
Read error : 0
Skipped (treated as error) : 0
Edge jitter error (maybe fixed) : 0
Atom jitter error (maybe fixed) : 0
Drift error (maybe fixed) : 0
Dropped bytes error (maybe fixed) : 0
Duplicated bytes error (maybe fixed) : 0
Track 05
Filename : /Users/thomasshea/Desktop/Flat Earth Society - Cheer Me, Perverts! [FLAC] (What.cd)/05 Flat Earth Society - Bad Linen.flac
Track gain : -8.14 dB
Peak : 0.988739
CRC32 hash (test run) : AF16979E
CRC32 hash : AF16979E
CRC32 hash (skip zero) : 2BE88EAB
AccurateRip signature : 75A49A98
->Accurately ripped! (confidence 1)
Statistics
Read error : 0
Skipped (treated as error) : 0
Edge jitter error (maybe fixed) : 0
Atom jitter error (maybe fixed) : 0
Drift error (maybe fixed) : 0
Dropped bytes error (maybe fixed) : 0
Duplicated bytes error (maybe fixed) : 0
Track 06
Filename : /Users/thomasshea/Desktop/Flat Earth Society - Cheer Me, Perverts! [FLAC] (What.cd)/06 Flat Earth Society - Too Sublime In Sin.flac
Track gain : -8.72 dB
Peak : 0.988770
CRC32 hash (test run) : F8B16DDD
CRC32 hash : F8B16DDD
CRC32 hash (skip zero) : 3B554D8A
AccurateRip signature : 3E89EF74
->Accurately ripped! (confidence 1)
Statistics
Read error : 0
Skipped (treated as error) : 0
Edge jitter error (maybe fixed) : 0
Atom jitter error (maybe fixed) : 0
Drift error (maybe fixed) : 0
Dropped bytes error (maybe fixed) : 0
Duplicated bytes error (maybe fixed) : 0
Track 07
Filename : /Users/thomasshea/Desktop/Flat Earth Society - Cheer Me, Perverts! [FLAC] (What.cd)/07 Flat Earth Society - Dawn On The Desert.flac
Track gain : -2.28 dB
Peak : 0.841156
CRC32 hash (test run) : 0F0AF4DF
CRC32 hash : 0F0AF4DF
CRC32 hash (skip zero) : 707EFD3F
AccurateRip signature : CC34E5A3
->Accurately ripped! (confidence 1)
Statistics
Read error : 0
Skipped (treated as error) : 0
Edge jitter error (maybe fixed) : 0
Atom jitter error (maybe fixed) : 0
Drift error (maybe fixed) : 0
Dropped bytes error (maybe fixed) : 0
Duplicated bytes error (maybe fixed) : 0
Track 08
Filename : /Users/thomasshea/Desktop/Flat Earth Society - Cheer Me, Perverts! [FLAC] (What.cd)/08 Flat Earth Society - Flatology.flac
Track gain : -8.40 dB
Peak : 0.988739
CRC32 hash (test run) : 3A5F78D6
CRC32 hash : 3A5F78D6
CRC32 hash (skip zero) : F07115C3
AccurateRip signature : 01FC9D19
->Accurately ripped! (confidence 1)
Statistics
Read error : 0
Skipped (treated as error) : 0
Edge jitter error (maybe fixed) : 0
Atom jitter error (maybe fixed) : 0
Drift error (maybe fixed) : 0
Dropped bytes error (maybe fixed) : 0
Duplicated bytes error (maybe fixed) : 0
Track 09
Filename : /Users/thomasshea/Desktop/Flat Earth Society - Cheer Me, Perverts! [FLAC] (What.cd)/09 Flat Earth Society - Smoke On Fire, The King Is Burning.flac
Track gain : -6.24 dB
Peak : 0.988739
CRC32 hash (test run) : 2154F239
CRC32 hash : 2154F239
CRC32 hash (skip zero) : 2C213D71
AccurateRip signature : 527589A2
->Accurately ripped! (confidence 1)
Statistics
Read error : 0
Skipped (treated as error) : 0
Edge jitter error (maybe fixed) : 0
Atom jitter error (maybe fixed) : 0
Drift error (maybe fixed) : 0
Dropped bytes error (maybe fixed) : 0
Duplicated bytes error (maybe fixed) : 0
Track 10
Filename : /Users/thomasshea/Desktop/Flat Earth Society - Cheer Me, Perverts! [FLAC] (What.cd)/10 Flat Earth Society - Mutt.flac
Track gain : -7.80 dB
Peak : 0.988739
CRC32 hash (test run) : AD937299
CRC32 hash : AD937299
CRC32 hash (skip zero) : B5909E3E
AccurateRip signature : 1DA0B86B
->Accurately ripped! (confidence 1)
Statistics
Read error : 0
Skipped (treated as error) : 0
Edge jitter error (maybe fixed) : 0
Atom jitter error (maybe fixed) : 0
Drift error (maybe fixed) : 0
Dropped bytes error (maybe fixed) : 0
Duplicated bytes error (maybe fixed) : 0
No errors occurred
End of status report
 
Спектральный анализ

Цитата:
Группа была образована в 1998 году композитором/кларнетистом Peter Vermeersch и с тех пор играет причудливую и утончённую музыку с диапазоном от рока и авангарда до классики и карикатуры, от красивого кабинетного джаза до jazz noir и jazz-rock. Бельгийский журнал Knack назвал Flat Earth Society «вероятно, самой эластичной группой».


По всем вопросам пишите личное сообщение пользователю M0p94ok.
15:17
183
Нет комментариев. Ваш будет первым!