Вы используете незарегистрированную версию компонента "Вкладки"!

Поиск

(Avant-Garde Jazz, Modern Creative, Experimental) Cuong Vu - It's Mostly Residual - 2006, FLAC (tracks+.cue), lossless

Треклист:
Cuong Vu - It's Mostly Residual
Жанр: Avant-Garde Jazz, Modern Creative, Experimental
Страна-производитель диска: Italy
Год издания диска: 2006
Издатель (лейбл): Auand Records
Номер по каталогу: AU 9010
Страна: Saigon, South Vietnam
Аудиокодек: FLAC (*.flac)
Тип рипа: tracks+.cue
Битрейт аудио: lossless
Продолжительность: 00:57:08
Источник (релизер): сеть
Наличие сканов в содержимом раздачи: да
01. It's Mostly Residual [08:54]
02. Expressions Of A Neurotic Impulse [07:09]
03. Patchwork [12:51]
04. Brittle, Like Twigs [07:35]
05. Chitter Chatter [09:13]
06. Blur [11:24]
 
Лог создания рипа
X Lossless Decoder version 20100401 (117.0)
XLD extraction logfile from 2010-04-08 13:05:21 +0200
Cuong Vu / It's Mostly Residual
Used drive : HL-DT-ST DVDRAM GP08NU20 (revision 1.00)
Use cdparanoia mode : YES (CDParanoia III 10.2 engine)
Disable audio cache : OK for the drive with cache less than 2750KB
Make use of C2 pointers : NO
Read offset correction : 102
Max retry count : 100
TOC of the extracted CD
Track | Start | Length | Start sector | End sector
---------------------------------------------------------
1 | 00:00:00 | 08:58:34 | 0 | 40383
2 | 08:58:34 | 07:12:49 | 40384 | 72832
3 | 16:11:08 | 12:54:33 | 72833 | 130915
4 | 29:05:41 | 07:38:20 | 130916 | 165285
5 | 36:43:61 | 09:17:23 | 165286 | 207083
6 | 46:01:09 | 11:24:39 | 207084 | 258422
All Tracks
Album gain : -7.67 dB
Peak : 0.977753
Track 01
Filename : /Volumes/8-Jazz + altro/ Flac/Cuong Vu - It's Mostly Residual (2005) [FLAC]/01 - It's Mostly Residual.flac
Pre-gap length : 00:02:00
Track gain : -8.15 dB
Peak : 0.977722
CRC32 hash (test run) : 33ED23D2
CRC32 hash : 33ED23D2
CRC32 hash (skip zero) : 41142204
AccurateRip signature : 114BCDF8
->Track not present in AccurateRip database.
Statistics
Read error : 0
Skipped (treated as error) : 0
Edge jitter error (maybe fixed) : 0
Atom jitter error (maybe fixed) : 0
Drift error (maybe fixed) : 0
Dropped bytes error (maybe fixed) : 0
Duplicated bytes error (maybe fixed) : 0
Inconsistency in error sectors : 0
Track 02
Filename : /Volumes/8-Jazz + altro/ Flac/Cuong Vu - It's Mostly Residual (2005) [FLAC]/02 - Expressions Of A Neurotic Impulse.flac
Pre-gap length : 00:04:00
Track gain : -8.47 dB
Peak : 0.977722
CRC32 hash (test run) : BE9CF5A2
CRC32 hash : BE9CF5A2
CRC32 hash (skip zero) : 632D4182
AccurateRip signature : 228A6FF5
->Track not present in AccurateRip database.
Statistics
Read error : 0
Skipped (treated as error) : 0
Edge jitter error (maybe fixed) : 0
Atom jitter error (maybe fixed) : 0
Drift error (maybe fixed) : 0
Dropped bytes error (maybe fixed) : 0
Duplicated bytes error (maybe fixed) : 0
Inconsistency in error sectors : 0
Track 03
Filename : /Volumes/8-Jazz + altro/ Flac/Cuong Vu - It's Mostly Residual (2005) [FLAC]/03 - Patchwork.flac
Pre-gap length : 00:03:00
Track gain : -6.64 dB
Peak : 0.977753
CRC32 hash (test run) : 7AFDB07E
CRC32 hash : 7AFDB07E
CRC32 hash (skip zero) : B1CB5E43
AccurateRip signature : 423B9E78
->Track not present in AccurateRip database.
Statistics
Read error : 0
Skipped (treated as error) : 0
Edge jitter error (maybe fixed) : 0
Atom jitter error (maybe fixed) : 0
Drift error (maybe fixed) : 0
Dropped bytes error (maybe fixed) : 0
Duplicated bytes error (maybe fixed) : 0
Inconsistency in error sectors : 0
Track 04
Filename : /Volumes/8-Jazz + altro/ Flac/Cuong Vu - It's Mostly Residual (2005) [FLAC]/04 - Brittle, Like Twigs.flac
Pre-gap length : 00:03:00
Track gain : -7.66 dB
Peak : 0.977753
CRC32 hash (test run) : F5367D2C
CRC32 hash : F5367D2C
CRC32 hash (skip zero) : 4C832BAC
AccurateRip signature : 36ED70D9
->Track not present in AccurateRip database.
Statistics
Read error : 0
Skipped (treated as error) : 0
Edge jitter error (maybe fixed) : 0
Atom jitter error (maybe fixed) : 0
Drift error (maybe fixed) : 0
Dropped bytes error (maybe fixed) : 0
Duplicated bytes error (maybe fixed) : 0
Inconsistency in error sectors : 0
Track 05
Filename : /Volumes/8-Jazz + altro/ Flac/Cuong Vu - It's Mostly Residual (2005) [FLAC]/05 - Chitter Chatter.flac
Pre-gap length : 00:03:00
Track gain : -7.70 dB
Peak : 0.977722
CRC32 hash (test run) : 876EE32A
CRC32 hash : 876EE32A
CRC32 hash (skip zero) : 2ACD0C95
AccurateRip signature : AAFBDC9E
->Track not present in AccurateRip database.
Statistics
Read error : 0
Skipped (treated as error) : 0
Edge jitter error (maybe fixed) : 0
Atom jitter error (maybe fixed) : 0
Drift error (maybe fixed) : 0
Dropped bytes error (maybe fixed) : 0
Duplicated bytes error (maybe fixed) : 0
Inconsistency in error sectors : 0
Track 06
Filename : /Volumes/8-Jazz + altro/ Flac/Cuong Vu - It's Mostly Residual (2005) [FLAC]/06 - Blur.flac
Pre-gap length : 00:04:00
Track gain : -7.47 dB
Peak : 0.977753
CRC32 hash (test run) : C2828514
CRC32 hash : C2828514
CRC32 hash (skip zero) : 3D2B5DC7
AccurateRip signature : 5F47C91F
->Track not present in AccurateRip database.
Statistics
Read error : 0
Skipped (treated as error) : 0
Edge jitter error (maybe fixed) : 0
Atom jitter error (maybe fixed) : 0
Drift error (maybe fixed) : 0
Dropped bytes error (maybe fixed) : 0
Duplicated bytes error (maybe fixed) : 0
Inconsistency in error sectors : 0
No errors occurred
End of status report
 
Содержание индексной карты (.CUE)
TITLE "It's Mostly Residual"
PERFORMER "Cuong Vu"
REM GENRE "Jazz"
REM DATE 2005
FILE "01 - It's Mostly Residual.wav" WAVE
TRACK 01 AUDIO
TITLE "It's Mostly Residual"
SONGWRITER "Cuong Vu"
INDEX 01 00:00:00
TRACK 02 AUDIO
TITLE "Expressions Of A Neurotic Impulse"
SONGWRITER "Cuong Vu"
INDEX 00 08:54:34
FILE "02 - Expressions Of A Neurotic Impulse.wav" WAVE
INDEX 01 00:00:00
TRACK 03 AUDIO
TITLE "Patchwork"
SONGWRITER "Cuong Vu"
INDEX 00 07:09:49
FILE "03 - Patchwork.wav" WAVE
INDEX 01 00:00:00
TRACK 04 AUDIO
TITLE "Brittle, Like Twigs"
SONGWRITER "Cuong Vu"
INDEX 00 12:51:33
FILE "04 - Brittle, Like Twigs.wav" WAVE
INDEX 01 00:00:00
TRACK 05 AUDIO
TITLE "Chitter Chatter"
SONGWRITER "Cuong Vu"
INDEX 00 07:35:20
FILE "05 - Chitter Chatter.wav" WAVE
INDEX 01 00:00:00
TRACK 06 AUDIO
TITLE "Blur"
SONGWRITER "Cuong Vu"
INDEX 00 09:13:23
FILE "06 - Blur.wav" WAVE
INDEX 01 00:00:00
 
Лог проверки качества
-----------------------
DON'T MODIFY THIS FILE
-----------------------
PERFORMER: auCDtect Task Manager, ver. 1.5.1RC6 build 1.5.1.7
Copyright (c) 2008-2010 y-soft. All rights reserved
http://y-soft.org
ANALYZER: auCDtect: CD records authenticity detector, version 0.8.2
Copyright (c) 2004 Oleg Berngardt. All rights reserved.
Copyright (c) 2004 Alexander Djourik. All rights reserved.
FILE: 06 - Blur.flac
Size: 64694761 Hash: 469471287578AAB11F01BF070A710940 Accuracy: -m0
Conclusion: CDDA 99%
Signature: DA4D7CC2B8D8791838876A3C8DCA5AA3D7A36463
FILE: 05 - Chitter Chatter.flac
Size: 59789922 Hash: 2240C26FC6DBAA7EC4294EE3A42E0D1C Accuracy: -m0
Conclusion: CDDA 100%
Signature: 0A0ECFCBF17379558C0B65CBF8FB1B7AA5919405
FILE: 04 - Brittle, Like Twigs.flac
Size: 52554677 Hash: F5545C8E43965C7BBA7DE0AFD57002EA Accuracy: -m0
Conclusion: CDDA 100%
Signature: DB742733026524FD965420570502C15BF19E8753
FILE: 03 - Patchwork.flac
Size: 81470908 Hash: 1D038B0EAB1967250B47AA6106B0DC91 Accuracy: -m0
Conclusion: CDDA 100%
Signature: F6FD15CAC5872D29AAF301CAAADFA29C9E553EED
FILE: 02 - Expressions Of A Neurotic Impulse.flac
Size: 51098094 Hash: E7A34A2281B31F6EEF2EEA8BFCECBA2D Accuracy: -m0
Conclusion: CDDA 100%
Signature: 10E8182C76312DC25C2CA0424706F098BE40D62C
FILE: 01 - It's Mostly Residual.flac
Size: 51339817 Hash: 21067D9C3CE45A50605EF54CFFEB3BA3 Accuracy: -m0
Conclusion: CDDA 100%
Signature: 388D4CA952BDC1E3F2E0D85D97CA42C9C24AB381
 
Состав
Cuong Vu trumpet
Bill Frisell guitar
Stomu Takeishi electric bass
Ted Poor drums
Any questions -> support@pro-jazz.com. По всем вопросам пишите -> support@pro-jazz.com
19:04
233
Нет комментариев. Ваш будет первым!