Вы используете незарегистрированную версию компонента "Вкладки"!

Поиск

(Avant-Garde Jazz, Free Improvisation) Archie Shepp - Ballads For Trane (1977) - 1984, FLAC (image+.cue), lossless

(Avant-Garde Jazz, Free Improvisation) Archie Shepp - Ballads For Trane (1977) - 1984, FLAC (image+.cue), lossless
Треклист:
Archie Shepp - Ballads For Trane (1977)
Жанр: Avant-Garde Jazz, Free Improvisation
Страна-производитель диска: Japan
Год издания диска: 1984
Издатель (лейбл): Denon
Номер по каталогу: 35C38-7264
Аудиокодек: FLAC (*.flac)
Тип рипа: image+.cue
Битрейт аудио: lossless
Продолжительность: 00:38:24
Источник (релизер): Рип с диска.
Наличие сканов в содержимом раздачи: да
Треклист:
01. Soul Eyes 06:37
02. You Don't Know What Love Is 05:38
03. Wise One 06:58
04. Where Arf You? 06:15
05. Darn That Dream 05:59
06. Theme For Ernie 06:23
Personnel:
Archie Shepp - ts, ss
Albert Dailey - p
Reginald Workman - b
Charles Persip - dr
 
Лог создания рипа
Exact Audio Copy V1.0 beta 3 from 29. August 2011
Отчёт EAC об извлечении, выполненном 3. декабря 2011, 23:26
Archie Shepp / Ballads for Trane
Дисковод: TSSTcorpCDDVDW SH-S223C Adapter: 5 ID: 0
Режим чтения : Достоверность
Использование точного потока : Да
Отключение кэша аудио : Да
Использование указателей C2 : Нет
Коррекция смещения при чтении : 697
Способность читать области Lead-in и Lead-out : Нет
Заполнение пропущенных сэмплов тишиной : Да
Удаление блоков с тишиной в начале и конце : Нет
При вычислениях CRC использовались нулевые сэмплы : Да
Интерфейс : Установленный внешний ASPI-интерфейс
Выходной формат : Пользовательский кодировщик
Выбранный битрейт : 128 kBit/s
Качество : Высокий
Добавление ID3-тега : Нет
Утилита сжатия : C:\Program Files\Exact Audio Copy\Flac\flac.exe
Дополнительные параметры : -V -8 -T "Date=%year%" -T "Genre=%genre%" %source%
TOC извлечённого CD
Трек | Старт | Длительность | Начальный сектор | Конечный сектор
---------------------------------------------------------------------
1 | 0:00.00 | 6:42.05 | 0 | 30154
2 | 6:42.05 | 5:44.50 | 30155 | 56004
3 | 12:26.55 | 7:04.20 | 56005 | 87824
4 | 19:31.00 | 6:21.25 | 87825 | 116424
5 | 25:52.25 | 6:04.05 | 116425 | 143729
6 | 31:56.30 | 6:27.72 | 143730 | 172826
Характеристики диапазона извлечения и сообщения об ошибках
Выбранный диапазон
Имя файла C:\Шахматы\1984.Archie Shepp - Ballads for Trane\Archie Shepp - Ballads for Trane.wav
Пиковый уровень 92.3 %
Скорость извлечения 3.0 X
Качество диапазона 100.0 %
CRC теста F17D8BC7
CRC копии F17D8BC7
Копирование... OK
Ошибок не произошло
AccurateRip: сводка
Трек 1 точность не определена (достоверность 4) [76DD2BCF], AccurateRip вернул [6900F3D2] (AR v2)
Трек 2 точность не определена (достоверность 4) [1D3A5930], AccurateRip вернул [662D6D89] (AR v2)
Трек 3 точность не определена (достоверность 4) [E1AB1AFC], AccurateRip вернул [C1BB83FE] (AR v2)
Трек 4 точность не определена (достоверность 4) [4E712BCD], AccurateRip вернул [FE900264] (AR v2)
Трек 5 точность не определена (достоверность 4) [2FADB247], AccurateRip вернул [E2F6D711] (AR v2)
Трек 6 точность не определена (достоверность 4) [CB529FE1], AccurateRip вернул [7F03DE27] (AR v2)
Ни один трек не прошёл проверки на точность
В вашей базе может быть иной вариант штамповки диска
Конец отчёта
==== Контрольная сумма отчёта B60E352F573855CCCBDE8FA3E4039059A7EC14FAE4E27264B9FB9C9D2A0167A3 ====
 
Содержание индексной карты (.CUE)
REM GENRE Jazz
REM DATE 1984
REM DISCID 4B090006
REM COMMENT "ExactAudioCopy v1.0b3"
PERFORMER "Archie Shepp"
TITLE "Ballads for Trane"
FILE "Archie Shepp - Ballads for Trane.flac" WAVE
TRACK 01 AUDIO
TITLE "Soul Eyes"
PERFORMER "Archie Shepp"
INDEX 01 00:00:00
TRACK 02 AUDIO
TITLE "You Don't Know What Love Is"
PERFORMER "Archie Shepp"
INDEX 01 06:42:05
TRACK 03 AUDIO
TITLE "Wise One"
PERFORMER "Archie Shepp"
INDEX 01 12:26:55
TRACK 04 AUDIO
TITLE "Where Arf You?"
PERFORMER "Archie Shepp"
INDEX 01 19:31:00
TRACK 05 AUDIO
TITLE "Darn That Dream"
PERFORMER "Archie Shepp"
INDEX 01 25:52:25
TRACK 06 AUDIO
TITLE "Theme For Ernie"
PERFORMER "Archie Shepp"
INDEX 01 31:56:30
Any questions -> support@pro-jazz.com. По всем вопросам пишите -> support@pro-jazz.com
19:05
279
Нет комментариев. Ваш будет первым!