Вы используете незарегистрированную версию компонента "Вкладки"!

Поиск

(Avant-Garde Jazz, Free Improvisation) George Adams - America - 1990, APE (image+.cue), lossless

(Avant-Garde Jazz, Free Improvisation) George Adams - America - 1990, APE (image+.cue), lossless
Треклист:
George Adams - America
Жанр: Avant-Garde Jazz, Free Improvisation
Страна-производитель диска: U.S.A.
Год издания диска: 1990
Издатель (лейбл): Blue Note
Номер по каталогу: CDP 7 93896 2
Аудиокодек: APE (*.ape)
Тип рипа: image+.cue
Битрейт аудио: lossless
Продолжительность: 00:52:58
Источник (релизер): Рип с диска.
Наличие сканов в содержимом раздачи: да
Треклист:
01. America the Beautiful (Bates-Ward) 3:59
02. Tennessee Waltz (Stewart-King) 6:48
03. Motivation (George Adams) 4:34
04. Old Folks at Home (Swanee River) (Foster) 5:33
05. Gee Baby, Ain't I Good to You (Andy Razaf-Don Redman) 7:18
06. Take Me Out to the Ball Game (Norworth-Von Tilzer) 2:41
07. You Are My Sunshine (Davis-Mitchell) 5:05
08. Georgia on My Mind (Gorrell-Carmichael) 8:14
09. Have You Thanked America? (George Adams) 6:49
10. The Star Spangled Banner (Key) 1:40
Personnel:
George Adams - ts, fl, voc
Hugh Lawson - p
Cecil McBee - b
Mark Johnson - drRecorded on May 24, 25, June 29, 10 & 18 1989.
 
Лог создания рипа
Exact Audio Copy V1.0 beta 3 from 29. August 2011
Отчёт EAC об извлечении, выполненном 2. декабря 2011, 22:18
George Adams / America
Дисковод: Optiarc DVD RW AD-5200A Adapter: 0 ID: 1
Режим чтения : Достоверность
Использование точного потока : Да
Отключение кэша аудио : Да
Использование указателей C2 : Нет
Коррекция смещения при чтении : 48
Способность читать области Lead-in и Lead-out : Нет
Заполнение пропущенных сэмплов тишиной : Да
Удаление блоков с тишиной в начале и конце : Нет
При вычислениях CRC использовались нулевые сэмплы : Да
Интерфейс : Установленный внешний ASPI-интерфейс
Выходной формат : Пользовательский кодировщик
Выбранный битрейт : 128 kBit/s
Качество : Высокий
Добавление ID3-тега : Нет
Утилита сжатия : C:\Program Files\Monkey's Audio\MAC.exe
Дополнительные параметры : %source% %dest% -c3000
TOC извлечённого CD
Трек | Старт | Длительность | Начальный сектор | Конечный сектор
---------------------------------------------------------------------
1 | 0:00.00 | 4:01.05 | 0 | 18079
2 | 4:01.05 | 6:49.65 | 18080 | 48819
3 | 10:50.70 | 4:35.22 | 48820 | 69466
4 | 15:26.17 | 5:34.53 | 69467 | 94569
5 | 21:00.70 | 7:20.57 | 94570 | 127626
6 | 28:21.52 | 2:41.05 | 127627 | 139706
7 | 31:02.57 | 5:07.23 | 139707 | 162754
8 | 36:10.05 | 8:16.27 | 162755 | 199981
9 | 44:26.32 | 6:51.18 | 199982 | 230824
10 | 51:17.50 | 1:40.20 | 230825 | 238344
Характеристики диапазона извлечения и сообщения об ошибках
Выбранный диапазон
Имя файла I:\На трекер\1990.George Adams - America\George Adams - America.wav
Пиковый уровень 87.1 %
Скорость извлечения 3.6 X
Качество диапазона 99.9 %
CRC теста 1C2C4331
CRC копии 1C2C4331
Копирование... OK
Ошибок не произошло
AccurateRip: сводка
Трек 1 : извлечено точно (доверие 2) [227E5F6A] (AR v2)
Трек 2 : извлечено точно (доверие 2) [3BB52A1E] (AR v2)
Трек 3 : извлечено точно (доверие 2) [40871845] (AR v2)
Трек 4 : извлечено точно (доверие 2) [87B8E440] (AR v2)
Трек 5 : извлечено точно (доверие 2) [BF3FF810] (AR v2)
Трек 6 : извлечено точно (доверие 2) [5BE97E36] (AR v2)
Трек 7 : извлечено точно (доверие 2) [8054E84C] (AR v2)
Трек 8 : извлечено точно (доверие 2) [E973657D] (AR v2)
Трек 9 : извлечено точно (доверие 2) [2B6E591A] (AR v2)
Трек 10 : извлечено точно (доверие 2) [31660A78] (AR v2)
Все треки извлечены точно
Конец отчёта
==== Контрольная сумма отчёта 2BAA7139A68D9E3EBBDD2E9F68C760CF674DC08666FC494A2C233061820C144E ====
 
Содержание индексной карты (.CUE)
REM GENRE Jazz
REM DATE 1990
REM DISCID 890C690A
REM COMMENT "ExactAudioCopy v1.0b3"
PERFORMER "George Adams"
TITLE "America"
FILE "George Adams - America.ape" WAVE
TRACK 01 AUDIO
TITLE "America the Beautiful"
PERFORMER "George Adams"
INDEX 01 00:00:00
TRACK 02 AUDIO
TITLE "Tennessee Waltz"
PERFORMER "George Adams"
INDEX 00 03:59:52
INDEX 01 04:01:05
TRACK 03 AUDIO
TITLE "Motivation"
PERFORMER "George Adams"
INDEX 00 10:49:42
INDEX 01 10:50:70
TRACK 04 AUDIO
TITLE "Old Folks at Home"
PERFORMER "George Adams"
INDEX 00 15:25:10
INDEX 01 15:26:17
TRACK 05 AUDIO
TITLE "Gee Baby, Ain't I Good to You"
PERFORMER "George Adams"
INDEX 00 20:59:45
INDEX 01 21:00:70
TRACK 06 AUDIO
TITLE "Take Me Out to the Ball Game"
PERFORMER "George Adams"
INDEX 00 28:19:25
INDEX 01 28:21:52
TRACK 07 AUDIO
TITLE "You Are My Sunshine"
PERFORMER "George Adams"
INDEX 00 31:02:55
INDEX 01 31:02:57
TRACK 08 AUDIO
TITLE "Georgia on My Mind"
PERFORMER "George Adams"
INDEX 00 36:08:60
INDEX 01 36:10:05
TRACK 09 AUDIO
TITLE "Have You Thanked America?"
PERFORMER "George Adams"
INDEX 00 44:24:42
INDEX 01 44:26:32
TRACK 10 AUDIO
TITLE "The Star Spangled Banner"
PERFORMER "George Adams"
INDEX 00 51:15:70
INDEX 01 51:17:50
Any questions -> support@pro-jazz.com. По всем вопросам пишите -> support@pro-jazz.com
19:04
324
Нет комментариев. Ваш будет первым!