Вы используете незарегистрированную версию компонента "Вкладки"!

Поиск

(Avant-Garde Jazz, Modern Creative) Yves Robert - In Touch - 2002, FLAC (tracks+.cue), lossless

Треклист:
Yves Robert - In Touch
Жанр: Avant-Garde Jazz, Modern Creative
Страна-производитель диска: Germany
Год издания диска: 2002
Издатель (лейбл): ECM
Номер по каталогу: 1787
Страна: Clermont-Ferrand, France
Аудиокодек: FLAC (*.flac)
Тип рипа: tracks+.cue
Битрейт аудио: lossless
Продолжительность: 00:48:45
Источник (релизер): cifelius
Наличие сканов в содержимом раздачи: да

Yves Robert - trombone
Vincent Courtois - cello
Cyril Atef - drums

01. In Touch [00:57]
02. Let'S Lay Down [05:29]
03. La Tendresse [16:46]
04. In Touch Var I [01:30]
05. L'Air D'Y Toucher [10:50]
06. Basculement Du Desir [09:06]
07. L'Attente Reste [01:38]
08. In Touch Var II [02:26]

 
Лог создания рипа
Exact Audio Copy V1.0 beta 1 from 15. November 2010
EAC extraction logfile from 19. February 2011, 18:00
Yves Robert / In Touch
Used drive : HL-DT-STDVD-RAM GH22NS30 Adapter: 1 ID: 1
Read mode : Secure
Utilize accurate stream : Yes
Defeat audio cache : Yes
Make use of C2 pointers : No
Read offset correction : 102
Overread into Lead-In and Lead-Out : No
Fill up missing offset samples with silence : Yes
Delete leading and trailing silent blocks : No
Null samples used in CRC calculations : Yes
Used interface : Native Win32 interface for Win NT & 2000
Gap handling : Appended to previous track
Used output format : User Defined Encoder
Selected bitrate : 768 kBit/s
Quality : High
Add ID3 tag : No
Command line compressor : C:\Programmi\Exact Audio Copy\Flac\flac.exe
Additional command line options : -8 -V -T "ARTIST=%a" -T "TITLE=%t" -T "ALBUM=%g" -T "DATE=%y" -T "TRACKNUMBER=%n" -T "TOTALTRACKS=%x" -T "GENRE=%m" -T "ALBUMARTIST=%v" -T "ALBUM ARTIST=%v" -T "COMMENT=EAC Secure Mode, Test & Copy, AccurateRip, FLAC -8" %s
TOC of the extracted CD
Track | Start | Length | Start sector | End sector
---------------------------------------------------------
1 | 0:00.00 | 0:57.71 | 0 | 4345
2 | 0:57.71 | 5:29.63 | 4346 | 29083
3 | 6:27.59 | 16:46.07 | 29084 | 104540
4 | 23:13.66 | 1:30.28 | 104541 | 111318
5 | 24:44.19 | 10:50.14 | 111319 | 160082
6 | 35:34.33 | 9:06.31 | 160083 | 201063
7 | 44:40.64 | 1:38.50 | 201064 | 208463
8 | 46:19.39 | 2:26.14 | 208464 | 219427
Track 1
Filename C:\Documents and Settings\user\Desktop\Robert, Courtois, Atef - In Touch (2002) [FLAC] {Ecm 1787}\01 - In Touch.wav
Pre-gap length 0:00:02.00
Peak level 27.4 %
Extraction speed 1.0 X
Track quality 100.0 %
Test CRC 4A9AF235
Copy CRC 4A9AF235
Accurately ripped (confidence 10) [53842186]
Copy OK
Track 2
Filename C:\Documents and Settings\user\Desktop\Robert, Courtois, Atef - In Touch (2002) [FLAC] {Ecm 1787}\02 - Let'S Lay Down.wav
Peak level 94.5 %
Extraction speed 1.7 X
Track quality 100.0 %
Test CRC F3C19C76
Copy CRC F3C19C76
Accurately ripped (confidence 10) [E84E5389]
Copy OK
Track 3
Filename C:\Documents and Settings\user\Desktop\Robert, Courtois, Atef - In Touch (2002) [FLAC] {Ecm 1787}\03 - La Tendresse.wav
Pre-gap length 0:00:00.60
Peak level 79.4 %
Extraction speed 2.4 X
Track quality 100.0 %
Test CRC E4BFD339
Copy CRC E4BFD339
Accurately ripped (confidence 10) [1D92FCEE]
Copy OK
Track 4
Filename C:\Documents and Settings\user\Desktop\Robert, Courtois, Atef - In Touch (2002) [FLAC] {Ecm 1787}\04 - In Touch Var I.wav
Pre-gap length 0:00:01.69
Peak level 26.7 %
Extraction speed 1.9 X
Track quality 100.0 %
Test CRC 489D7CB9
Copy CRC 489D7CB9
Accurately ripped (confidence 10) [33A6226F]
Copy OK
Track 5
Filename C:\Documents and Settings\user\Desktop\Robert, Courtois, Atef - In Touch (2002) [FLAC] {Ecm 1787}\05 - L'Air D'Y Toucher.wav
Pre-gap length 0:00:03.41
Peak level 91.0 %
Extraction speed 2.7 X
Track quality 99.9 %
Test CRC 24F02ECC
Copy CRC 24F02ECC
Accurately ripped (confidence 10) [A4A525B4]
Copy OK
Track 6
Filename C:\Documents and Settings\user\Desktop\Robert, Courtois, Atef - In Touch (2002) [FLAC] {Ecm 1787}\06 - Basculement Du Desir.wav
Pre-gap length 0:00:01.47
Peak level 81.5 %
Extraction speed 3.1 X
Track quality 100.0 %
Test CRC 318C7E19
Copy CRC 318C7E19
Accurately ripped (confidence 10) [A4210C4F]
Copy OK
Track 7
Filename C:\Documents and Settings\user\Desktop\Robert, Courtois, Atef - In Touch (2002) [FLAC] {Ecm 1787}\07 - L'Attente Reste.wav
Pre-gap length 0:00:06.44
Peak level 66.7 %
Extraction speed 2.5 X
Track quality 100.0 %
Test CRC B20F08BB
Copy CRC B20F08BB
Accurately ripped (confidence 10) [67735970]
Copy OK
Track 8
Filename C:\Documents and Settings\user\Desktop\Robert, Courtois, Atef - In Touch (2002) [FLAC] {Ecm 1787}\08 - In Touch Var II.wav
Peak level 33.5 %
Extraction speed 2.7 X
Track quality 100.0 %
Test CRC 5F8B6AA7
Copy CRC 5F8B6AA7
Accurately ripped (confidence 9) [FA10B28A]
Copy OK
All tracks accurately ripped
No errors occurred
End of status report
==== Log checksum 527226B09831F596F626DE7C3538C2EA4F6C44F916CC2C6F9190D2023E4FC099 ====
 
Содержание индексной карты (.CUE)
REM GENRE Jazz
REM DATE 2002
REM DISCID 790B6D08
REM COMMENT "ExactAudioCopy v1.0b1"
PERFORMER "Yves Robert"
TITLE "In Touch"
FILE "01 - In Touch.wav" WAVE
TRACK 01 AUDIO
TITLE "In Touch"
PERFORMER "Yves Robert"
INDEX 01 00:00:00
FILE "02 - Let'S Lay Down.wav" WAVE
TRACK 02 AUDIO
TITLE "Let'S Lay Down"
PERFORMER "Yves Robert"
INDEX 01 00:00:00
TRACK 03 AUDIO
TITLE "La Tendresse"
PERFORMER "Yves Robert"
INDEX 00 05:29:03
FILE "03 - La Tendresse.wav" WAVE
INDEX 01 00:00:00
TRACK 04 AUDIO
TITLE "In Touch Var I"
PERFORMER "Yves Robert"
INDEX 00 16:44:13
FILE "04 - In Touch Var I.wav" WAVE
INDEX 01 00:00:00
TRACK 05 AUDIO
TITLE "L'Air D'Y Toucher"
PERFORMER "Yves Robert"
INDEX 00 01:26:62
FILE "05 - L'Air D'Y Toucher.wav" WAVE
INDEX 01 00:00:00
TRACK 06 AUDIO
TITLE "Basculement Du Desir"
PERFORMER "Yves Robert"
INDEX 00 10:48:42
FILE "06 - Basculement Du Desir.wav" WAVE
INDEX 01 00:00:00
TRACK 07 AUDIO
TITLE "L'Attente Reste"
PERFORMER "Yves Robert"
INDEX 00 08:59:62
FILE "07 - L'Attente Reste.wav" WAVE
INDEX 01 00:00:00
FILE "08 - In Touch Var II.wav" WAVE
TRACK 08 AUDIO
TITLE "In Touch Var II"
PERFORMER "Yves Robert"
INDEX 01 00:00:00
 
Лог проверки качества
-----------------------
DON'T MODIFY THIS FILE
-----------------------
PERFORMER: auCDtect Task Manager, ver. 1.5.1RC6 build 1.5.1.7
Copyright (c) 2008-2010 y-soft. All rights reserved
http://y-soft.org
ANALYZER: auCDtect: CD records authenticity detector, version 0.8.2
Copyright (c) 2004 Oleg Berngardt. All rights reserved.
Copyright (c) 2004 Alexander Djourik. All rights reserved.
FILE: 08 - In Touch Var II.flac
Size: 9375919 Hash: B0C615ADCAAC74E88FCBBB5549442069 Accuracy: -m0
Conclusion: CDDA 100%
Signature: 543F341499015E1A336B4A77D2B243FB9F3F9018
FILE: 07 - L'Attente Reste.flac
Size: 8736482 Hash: 4DC97C728423F6E043E55F7425CE1697 Accuracy: -m0
Conclusion: CDDA 100%
Signature: 1BBE959BDBE7AD4E847AE07DF52C56A621CD9054
FILE: 06 - Basculement Du Desir.flac
Size: 39473671 Hash: D6D09188D256A46E75DB8FBC3C26DCC2 Accuracy: -m0
Conclusion: CDDA 100%
Signature: 0BF33C63C2EDB0CD3DAA6D9B2A18FE7E2E3FDF13
FILE: 05 - L'Air D'Y Toucher.flac
Size: 56551593 Hash: 24A26DE4E2A44A0079C8F523B2551AE8 Accuracy: -m0
Conclusion: CDDA 100%
Signature: 3934ADE22328BBBBB9F3EF70D2EEBF2D081B8434
FILE: 04 - In Touch Var I.flac
Size: 3929508 Hash: 7CD7CC68D112302476FF28B66993C10E Accuracy: -m0
Conclusion: CDDA 100%
Signature: 0BA3CD70804914C33C8F7AEEB99148216AFB703B
FILE: 03 - La Tendresse.flac
Size: 80664811 Hash: 599292AFA36D3CB0A093114F9B3520BD Accuracy: -m0
Conclusion: CDDA 100%
Signature: C84DB7A4399453D995A79BA7D61E9363CC4F3387
FILE: 02 - Let'S Lay Down.flac
Size: 31838020 Hash: 4DA2A78D4366DA23EDF3A9A7B60A7B4E Accuracy: -m0
Conclusion: CDDA 100%
Signature: AB6BE68C4ED85B99CB550AF2F1C408C5DB871DF7
FILE: 01 - In Touch.flac
Size: 3108685 Hash: EB5AB2C60B6DA94259EB1995DF02D561 Accuracy: -m0
Conclusion: CDDA 100%
Signature: CE7C411DDF40C390EA57A3B9B314521CB788E659
Any questions -> support@pro-jazz.com. По всем вопросам пишите -> support@pro-jazz.com
19:03
248
Нет комментариев. Ваш будет первым!