Вы используете незарегистрированную версию компонента "Вкладки"!

Поиск

(Avant-Garde Jazz, Modern Composition) Szilard Mezei Ensemble - Sivatag - 2008, FLAC (tracks+.cue), lossless

(Avant-Garde Jazz, Modern Composition) Szilard Mezei Ensemble - Sivatag - 2008, FLAC (tracks+.cue), lossless
Треклист:
Szilard Mezei Ensemble / Sivatag
Жанр: Avant-Garde Jazz, Modern Composition
Страна-производитель диска: Portugal
Год издания: 2008
Издатель (лейбл): Creative Sources
Номер по каталогу: cs 115 cd
Страна: Serbia
Аудиокодек: FLAC (*.flac)
Тип рипа: tracks+.cue
Битрейт аудио: lossless
Продолжительность: 60:08
Источник (релизер): свой фирменный диск
Наличие сканов в содержимом раздачи:
Треклист:
1. Warszawa Sketch 14:21
2. Vizfeny (Eszak) / Waterlight (North) 11:50
3. Sivatag / Desert 33:58
 
Лог создания рипа
Exact Audio Copy V1.0 beta 3 from 29. August 2011
EAC extraction logfile from 20. November 2013, 0:16
Szilard Mezei Ensemble / Sivatag
Used drive : PIONEER DVD-RW DVR-115D Adapter: 0 ID: 0
Read mode : Secure
Utilize accurate stream : Yes
Defeat audio cache : Yes
Make use of C2 pointers : No
Read offset correction : 48
Overread into Lead-In and Lead-Out : No
Fill up missing offset samples with silence : Yes
Delete leading and trailing silent blocks : No
Null samples used in CRC calculations : Yes
Used interface : Installed external ASPI interface
Gap handling : Appended to previous track
Used output format : User Defined Encoder
Selected bitrate : 896 kBit/s
Quality : High
Add ID3 tag : No
Command line compressor : C:\Program Files\Exact Audio Copy\FLAC\FLAC.EXE
Additional command line options : -6 -V -T "ARTIST=%artist%" -T "TITLE=%title%" -T "ALBUM=%albumtitle%" -T "DATE=%year%" -T "TRACKNUMBER=%tracknr%" -T "GENRE=%genre%" -T "COMMENT=%comment%" -T "BAND=%albuminterpret%" -T "COMPOSER=%composer%" %haslyrics%--tag-from-file=LYRICS="%lyricsfile%"%haslyrics% -T "DISCNUMBER=%cdnumber%" -T "TOTALDISCS=%totalcds%" -T "TOTALTRACKS=%numtracks%" %hascover%--picture="%coverfile%"%hascover% %source% -o %dest%
TOC of the extracted CD
Track | Start | Length | Start sector | End sector
---------------------------------------------------------
1 | 0:00.00 | 14:20.43 | 0 | 64542
2 | 14:20.43 | 11:49.40 | 64543 | 117757
3 | 26:10.08 | 33:58.64 | 117758 | 270671
Track 1
Filename D:\zzz\01 - Warszawa Sketch.wav
Pre-gap length 0:00:02.00
Peak level 93.9 %
Extraction speed 5.8 X
Track quality 100.0 %
Test CRC 96DC11B1
Copy CRC 96DC11B1
Accurately ripped (confidence 1) [758EC640] (AR v1)
Copy OK
Track 2
Filename D:\zzz\02 - Vizfeny (Eszak) , Waterlight (North).wav
Pre-gap length 0:00:02.00
Peak level 32.2 %
Extraction speed 7.0 X
Track quality 100.0 %
Test CRC 70384A33
Copy CRC 70384A33
Accurately ripped (confidence 1) [29F92D45] (AR v1)
Copy OK
Track 3
Filename D:\zzz\03 - Sivatag , Desert.wav
Pre-gap length 0:00:02.00
Peak level 100.0 %
Extraction speed 8.6 X
Track quality 99.9 %
Test CRC A8BC3126
Copy CRC A8BC3126
Accurately ripped (confidence 1) [96A70C24] (AR v1)
Copy OK
All tracks accurately ripped
No errors occurred
End of status report
==== Log checksum 4FCD9A49956D8B2DE25A51EEBF7ADB8B28BD1547E1478B6B2BEF06244F261C63 ====
 
Содержание индексной карты (.CUE)
REM GENRE Avant-Garde
REM DATE 2008
REM DISCID 210E1803
REM COMMENT "ExactAudioCopy v1.0b3"
PERFORMER "Szilard Mezei Ensemble"
TITLE "Sivatag"
FILE "01 - Warszawa Sketch.wav" WAVE
TRACK 01 AUDIO
TITLE "Warszawa Sketch"
PERFORMER "Szilard Mezei Ensemble"
INDEX 01 00:00:00
TRACK 02 AUDIO
TITLE "Vizfeny (Eszak) / Waterlight (North)"
PERFORMER "Szilard Mezei Ensemble"
INDEX 00 14:18:43
FILE "02 - Vizfeny (Eszak) , Waterlight (North).wav" WAVE
INDEX 01 00:00:00
TRACK 03 AUDIO
TITLE "Sivatag / Desert"
PERFORMER "Szilard Mezei Ensemble"
INDEX 00 11:47:40
FILE "03 - Sivatag , Desert.wav" WAVE
INDEX 01 00:00:00
 
Лог проверки качества
d:\>d:\aucdtect -d/-m0 d:\zzz\*.wav
auCDtect: CD records authenticity detector, version 0.8.2
Copyright (c) 2004 Oleg Berngardt. All rights reserved.
Copyright (c) 2004 Alexander Djourik. All rights reserved.
------------------------------------------------------------
Processing file: [01. Warszawa Sketch.wav]
------------------------------------------------------------
This track looks like CDDA with probability 100%
------------------------------------------------------------
Processing file: [02. Vizfeny (Eszak) - Waterlight (North).wav]
------------------------------------------------------------
This track looks like CDDA with probability 100%
------------------------------------------------------------
Processing file: [03. Sivatag - Desert.wav]
------------------------------------------------------------
This track looks like CDDA with probability 100%
------------------------------------------------------------
Final Conclusion:
------------------------------------------------------------
These tracks looks like CDDA with probability 100%
Доп. информация:
 
Album & Artist Info
Compositions by Szilard Mezei
Recorded 14 November 2006, by Sasa Milankov & Lazar Zivanac, Studio "Vilenjak", Novi Sad, Serbia
Graphic work: Erszebet Mezei
Cover design: UNITgraphics.com
Text translation by Marko Gregoric
Liner notes: Neven Usumovic
"From the very beginnings of his musical activity, Szilárd Mezei (born in 1974) appears both as an instrumentalist and composer (and a conductor of ensemble). He has searched for his creative landmarks in the avant-garde tendencies of classical music, as well as, primarily, in free jazz (in the direction given to the latter by Anthony Braxton), that is, in a broader sense, in improvisation. His creative development has been influenced by the fact that these beginnings took place in the environment of the theatre (in the early nineties, Mezei was writing and performing music for the performances of the theatrical ensemble AIOWA, then for the Jel Színház and other formations of the already famous Hungarian-French stage-manager and dancer József Nagy, who also shares his origins with Mezei, being a member of the Hungarian national minority in Vojvodina, the autonomous region of Serbia), which brought Mezei into a direct relationship with the performance side of music and the possibility of its staging.
The substantial and ideological tendencies of Mezei's rich creativity are hardly comprehensible without a certain acquaintance with his extraordinary erudition, the spirit of research based on the spiritual world of the primordial Tradition, but also on modern art and its revolt against the "measuring of the world" carried out by the rationalistic mind of the West. This spiritual background already ostensibly reveals itself in the symbolic titles of Mezei's albums and compositions, but, of course, in his texts and interviews as well. The ideological soundness of the work of the Hungarian thinker Béla Hamvas (1892-1968), the great works of Béla Bartók (1888-1946), and among living composers the musical dignity (which unites the endeavours of these two Hungarian geniuses) of György Szabados, offer Mezei an interior basis which gives direction and force to his own musical efforts.
Orientation towards the Tradition leads Mezei, in his primary role as jazz musician, to a reinterpretation of the jazz tradition, replacing that which in the history of jazz represents the African heritage and the tradition of "black America", by the-in the European context-extremely lively and peculiar tradition of Hungarian folk music, as well as by the music of the great Oriental sacral traditions. So no wonder that it is, notwithstanding all this, very difficult to foresee what Mezei will do next: his jazz is genuinely inspired by the great achievements of modern classical music (as well as Bartók, one must also mention Lutoslawski), as well as by the original folk tradition. One thing however is sure: for now, we won't find in Mezei any trace of the nowadays very popular "post-fusion" jazz tunes, no experimentation with electronic pop-music, hip-hop or noise-rock!
All that we have said up to now makes us realise the specific programmatic character of this music. This character derives not only from the ideological richness of Mezei's creativity, but often from its (the music's) predestination for the stage as well. Mezei's scenic imagination had the luck to be continually developing due to the stimulating creative cooperation with artists like his sister, the actress and stage-manager Kinga Mezei, then with András Urbán, Tibor Várszegi, as well as with József Nagy already mentioned. As if this continual contact with the stage reflected itself on the orchestration and the musical dramaturgy of his compositions, in which we sometimes find a real "distribution of the parts", and the musical dialogue and monologue-of which the latter is so typical of jazz-assume here, in the strict sense of the word, dramatic proportions!
 
Состав
Gergely Ittzes: flute, alto flute, piccolo
Svetlana Novakovic: flute
Alfred Asztalos: clarinet
Bogdan Rankovic: bass clarinet
Branislav Aksin: trombone
Kornel Papista: tuba
Szilard Mezei: viola, lead.
Albert Markos: violoncello
Ervin Malina: double bass
Istvan Csik: percussions
Any questions -> support@pro-jazz.com. По всем вопросам пишите -> support@pro-jazz.com
20:48
148
Нет комментариев. Ваш будет первым!