Вы используете незарегистрированную версию компонента "Вкладки"!

Поиск

(Avant-Garde Jazz, Free Improvisation) Steuart Liebig, Michael Vatcher, Vinny Golia - On The Cusp Of Fire And Water - 2004, FLAC (tracks+.cue), lossless

(Avant-Garde Jazz, Free Improvisation) Steuart Liebig, Michael Vatcher, Vinny Golia - On The Cusp Of Fire And Water - 2004, FLAC (tracks+.cue), lossless
Треклист:
Steuart Liebig, Michael Vatcher, Vinny Golia / On The Cusp Of Fire And Water
Жанр: Avant-Garde Jazz, Free Improvisation
Страна-производитель диска: Canada
Год издания: 2004
Издатель (лейбл): Red Toucan Records
Номер по каталогу: RT 9324
Страна: US
Аудиокодек: FLAC (*.flac)
Тип рипа: tracks+.cue
Битрейт аудио: lossless
Продолжительность: 65:31
Источник (релизер): свой фирменный диск
Наличие сканов в содержимом раздачи:
Треклист:
1. Flurries 8:21
2. Prelude 18:10
3. Aftermath 10:32
4. Transit 7:42
5. Undertow 20:27
 
Лог создания рипа
Exact Audio Copy V1.0 beta 3 from 29. August 2011
EAC extraction logfile from 19. November 2013, 21:56
Steuart Liebig, Michael Vatcher, Vinny Golia / On The Cusp Of Fire And Water
Used drive : PIONEER DVD-RW DVR-115D Adapter: 0 ID: 0
Read mode : Secure
Utilize accurate stream : Yes
Defeat audio cache : Yes
Make use of C2 pointers : No
Read offset correction : 48
Overread into Lead-In and Lead-Out : No
Fill up missing offset samples with silence : Yes
Delete leading and trailing silent blocks : No
Null samples used in CRC calculations : Yes
Used interface : Installed external ASPI interface
Gap handling : Appended to previous track
Used output format : User Defined Encoder
Selected bitrate : 896 kBit/s
Quality : High
Add ID3 tag : No
Command line compressor : C:\Program Files\Exact Audio Copy\FLAC\FLAC.EXE
Additional command line options : -6 -V -T "ARTIST=%artist%" -T "TITLE=%title%" -T "ALBUM=%albumtitle%" -T "DATE=%year%" -T "TRACKNUMBER=%tracknr%" -T "GENRE=%genre%" -T "COMMENT=%comment%" -T "BAND=%albuminterpret%" -T "COMPOSER=%composer%" %haslyrics%--tag-from-file=LYRICS="%lyricsfile%"%haslyrics% -T "DISCNUMBER=%cdnumber%" -T "TOTALDISCS=%totalcds%" -T "TOTALTRACKS=%numtracks%" %hascover%--picture="%coverfile%"%hascover% %source% -o %dest%
TOC of the extracted CD
Track | Start | Length | Start sector | End sector
---------------------------------------------------------
1 | 0:01.00 | 8:26.41 | 75 | 38065
2 | 8:27.41 | 18:14.47 | 38066 | 120162
3 | 26:42.13 | 10:36.21 | 120163 | 167883
4 | 37:18.34 | 7:47.03 | 167884 | 202911
5 | 45:05.37 | 20:27.03 | 202912 | 294939
Track 1
Filename D:\zzz\01 - Flurries.wav
Pre-gap length 0:00:03.00
Peak level 96.6 %
Extraction speed 4.8 X
Track quality 100.0 %
Test CRC 29BA41BB
Copy CRC 29BA41BB
Track not present in AccurateRip database
Copy OK
Track 2
Filename D:\zzz\02 - Prelude.wav
Pre-gap length 0:00:03.45
Peak level 96.6 %
Extraction speed 6.2 X
Track quality 99.9 %
Test CRC B89804B8
Copy CRC B89804B8
Track not present in AccurateRip database
Copy OK
Track 3
Filename D:\zzz\03 - Aftermath.wav
Pre-gap length 0:00:03.45
Peak level 96.7 %
Extraction speed 7.3 X
Track quality 100.0 %
Test CRC D90068AC
Copy CRC D90068AC
Track not present in AccurateRip database
Copy OK
Track 4
Filename D:\zzz\04 - Transit.wav
Pre-gap length 0:00:03.45
Peak level 96.6 %
Extraction speed 7.7 X
Track quality 100.0 %
Test CRC 153EFBA8
Copy CRC 153EFBA8
Track not present in AccurateRip database
Copy OK
Track 5
Filename D:\zzz\05 - Undertow.wav
Pre-gap length 0:00:03.45
Peak level 96.6 %
Extraction speed 8.9 X
Track quality 100.0 %
Test CRC A76E21B2
Copy CRC A76E21B2
Track not present in AccurateRip database
Copy OK
None of the tracks are present in the AccurateRip database
No errors occurred
End of status report
==== Log checksum A392CBB85562BD1768A155C02A155DB68CFA5A558A495C8068C459CE92999769 ====
 
Содержание индексной карты (.CUE)
REM GENRE "Free Improvisation"
REM DATE 2004
REM DISCID 340F5B05
REM COMMENT "ExactAudioCopy v1.0b3"
PERFORMER "Steuart Liebig, Michael Vatcher, Vinny Golia"
TITLE "On The Cusp Of Fire And Water"
FILE "01 - Flurries.wav" WAVE
TRACK 01 AUDIO
TITLE "Flurries"
PERFORMER "Steuart Liebig, Michael Vatcher, Vinny Golia"
PREGAP 00:01:00
INDEX 01 00:00:00
TRACK 02 AUDIO
TITLE "Prelude"
PERFORMER "Steuart Liebig, Michael Vatcher, Vinny Golia"
INDEX 00 08:22:71
FILE "02 - Prelude.wav" WAVE
INDEX 01 00:00:00
TRACK 03 AUDIO
TITLE "Aftermath"
PERFORMER "Steuart Liebig, Michael Vatcher, Vinny Golia"
INDEX 00 18:11:02
FILE "03 - Aftermath.wav" WAVE
INDEX 01 00:00:00
TRACK 04 AUDIO
TITLE "Transit"
PERFORMER "Steuart Liebig, Michael Vatcher, Vinny Golia"
INDEX 00 10:32:51
FILE "04 - Transit.wav" WAVE
INDEX 01 00:00:00
TRACK 05 AUDIO
TITLE "Undertow"
PERFORMER "Steuart Liebig, Michael Vatcher, Vinny Golia"
INDEX 00 07:43:33
FILE "05 - Undertow.wav" WAVE
INDEX 01 00:00:00
 
Лог проверки качества
d:\>d:\aucdtect -d/-m0 d:\zzz\*.wav
auCDtect: CD records authenticity detector, version 0.8.2
Copyright (c) 2004 Oleg Berngardt. All rights reserved.
Copyright (c) 2004 Alexander Djourik. All rights reserved.
------------------------------------------------------------
Processing file: [01. Flurries.wav]
------------------------------------------------------------
This track looks like CDDA with probability 99%
------------------------------------------------------------
Processing file: [02. Prelude.wav]
------------------------------------------------------------
This track looks like CDDA with probability 100%
------------------------------------------------------------
Processing file: [03. Aftermath.wav]
------------------------------------------------------------
This track looks like CDDA with probability 100%
------------------------------------------------------------
Processing file: [04. Transit.wav]
------------------------------------------------------------
This track looks like CDDA with probability 100%
------------------------------------------------------------
Processing file: [05. Undertow.wav]
------------------------------------------------------------
This track looks like CDDA with probability 100%
------------------------------------------------------------
Final Conclusion:
------------------------------------------------------------
These tracks looks like CDDA with probability 100%
Доп. информация:
 
Album Info & AMG Review
Recorded live in Los Angeles, California, 23 July 2001, by Wayne Peet
Mixed at Newzone Stusios, 3 & 5 September 2001, by Wayne Peet and Steuart Liebig
Thanks to Harris Eisenstadt (drums) and Liz Garo for helping that night in July.
Thanks to Fodera basses and Raven Labs.
Thanks to our families.
Artistic director: Michel Passaretti
Graphic design: Marcel Boucher and Chantal Claude
Photographs: Michael Vatcher by Peter Gannushkin, Vinny Golia by Nuno Martins
Liner notes: Steuart Liebig
Released three years after its recording, this session offers an unusual take on free improvisation -- here cross-idiomatic much more than non-idiomatic. Versatile enough to adapt to rock, jazz, and free settings, drummer Michael Vatcher displays lots of finesse, whether he's moving small objects on top of his drums to produce quiet textures or rolling away like a madman. Vinny Golia can step away from jazz, but you cannot take the jazz out of his phrasing and lyricism. His grace at the soprano sax and clarinet and his powerful flute playing are featured here. Steuart Liebig, the conveyor of this session, is the prime mover: playing an electric E-flat contrabass guitar supplemented by electronics, he shifts constantly between thunderous distorted riffs, looped soundscapes, textures, and abstract playing, but always rooted in some form of rock music. As a result, the trio is puzzling at first, say for the duration of "Flurries," the opening track. Then, as the listener starts to grasp the scope of each player and the common ground the three musicians aim for, the music makes more sense and resonates at a deeper level. The 18-minute "Prelude" (featuring Golia on alto flute) and the eight-minute "Transit" deliver the strongest moments: nice contrasting sections, plenty of energy and listening. In comparison, the 20-minute closer, "Undertow," is uneven, its quiet middle section lacking interplay, the remainder not boasting the panache of the previous tracks. In the Cusp of Fire and Water is not an essential item from any of these artists, but it will make a nice complement for listeners who found excitement in Locustland, the CD by Liebig's group the Mentones that came out at around the same time as this one.
 
Состав
Michael Vatcher: drumset, percussion, air horn and popguns
Steuart Liebig: Eb contrabassguitars, applied tools and technology
Vinny Golia: soprano saxophone (2,4), stritch (3,5), alto flute (2) and clarinet (1,5)
По всем вопросам пишите личное сообщение пользователю M0p94ok.
20:48
153
Нет комментариев. Ваш будет первым!