Вы используете незарегистрированную версию компонента "Вкладки"!

Поиск

(Avant-Garde Jazz, Modern Composition) Szilard Mezei Ensemble - Nad/Reed - 2008, FLAC (tracks+.cue), lossless

(Avant-Garde Jazz, Modern Composition) Szilard Mezei Ensemble - Nad/Reed - 2008, FLAC (tracks+.cue), lossless
Треклист:
Szilard Mezei Ensemble / Nad/Reed
Жанр: Avant-Garde Jazz, Modern Composition
Страна-производитель диска: Canada
Год издания: 2008
Издатель (лейбл): Red Toucan Records
Номер по каталогу: RT 9335
Страна: Serbia
Аудиокодек: FLAC (*.flac)
Тип рипа: tracks+.cue
Битрейт аудио: lossless
Продолжительность: 76:17
Источник (релизер): свой фирменный диск
Наличие сканов в содержимом раздачи:
Треклист:
1. Cirkula / Circle Saw 15:05
2. Esolovak / Rain Horses 15:04
3. Hep 1 12:50
4. Hep 2 15:42
5. Fohasz / Petition 17:29
 
Лог создания рипа
Exact Audio Copy V1.0 beta 3 from 29. August 2011
EAC extraction logfile from 20. November 2013, 22:03
Szilard Mezei Ensemble / Nad/Reed
Used drive : PIONEER DVD-RW DVR-115D Adapter: 0 ID: 0
Read mode : Secure
Utilize accurate stream : Yes
Defeat audio cache : Yes
Make use of C2 pointers : No
Read offset correction : 48
Overread into Lead-In and Lead-Out : No
Fill up missing offset samples with silence : Yes
Delete leading and trailing silent blocks : No
Null samples used in CRC calculations : Yes
Used interface : Installed external ASPI interface
Gap handling : Appended to previous track
Used output format : User Defined Encoder
Selected bitrate : 896 kBit/s
Quality : High
Add ID3 tag : No
Command line compressor : C:\Program Files\Exact Audio Copy\FLAC\FLAC.EXE
Additional command line options : -6 -V -T "ARTIST=%artist%" -T "TITLE=%title%" -T "ALBUM=%albumtitle%" -T "DATE=%year%" -T "TRACKNUMBER=%tracknr%" -T "GENRE=%genre%" -T "COMMENT=%comment%" -T "BAND=%albuminterpret%" -T "COMPOSER=%composer%" %haslyrics%--tag-from-file=LYRICS="%lyricsfile%"%haslyrics% -T "DISCNUMBER=%cdnumber%" -T "TOTALDISCS=%totalcds%" -T "TOTALTRACKS=%numtracks%" %hascover%--picture="%coverfile%"%hascover% %source% -o %dest%
TOC of the extracted CD
Track | Start | Length | Start sector | End sector
---------------------------------------------------------
1 | 0:00.00 | 15:07.38 | 0 | 68062
2 | 15:07.38 | 15:06.06 | 68063 | 136018
3 | 30:13.44 | 12:50.08 | 136019 | 193776
4 | 43:03.52 | 15:44.44 | 193777 | 264620
5 | 58:48.21 | 17:29.47 | 264621 | 343342
Track 1
Filename D:\zzz\01 - Cirkula , Circle Saw.wav
Pre-gap length 0:00:02.00
Peak level 97.7 %
Extraction speed 5.8 X
Track quality 100.0 %
Test CRC 2A1B015D
Copy CRC 2A1B015D
Accurately ripped (confidence 2) [817754A6] (AR v1)
Copy OK
Track 2
Filename D:\zzz\02 - Esolovak , Rain Horses.wav
Pre-gap length 0:00:02.00
Peak level 97.7 %
Extraction speed 7.2 X
Track quality 100.0 %
Test CRC FECE031B
Copy CRC FECE031B
Accurately ripped (confidence 2) [C85AB2D0] (AR v1)
Copy OK
Track 3
Filename D:\zzz\03 - Hep 1.wav
Pre-gap length 0:00:02.00
Peak level 97.7 %
Extraction speed 8.1 X
Track quality 100.0 %
Test CRC 008EA117
Copy CRC 008EA117
Accurately ripped (confidence 2) [20387F42] (AR v1)
Copy OK
Track 4
Filename D:\zzz\04 - Hep 2.wav
Peak level 97.7 %
Extraction speed 9.0 X
Track quality 100.0 %
Test CRC 7EF575BD
Copy CRC 7EF575BD
Accurately ripped (confidence 2) [45BB620B] (AR v1)
Copy OK
Track 5
Filename D:\zzz\05 - Fohasz , Petition.wav
Pre-gap length 0:00:02.00
Peak level 97.7 %
Extraction speed 9.9 X
Track quality 100.0 %
Test CRC 10C5BACF
Copy CRC 10C5BACF
Accurately ripped (confidence 2) [89216EA2] (AR v1)
Copy OK
All tracks accurately ripped
No errors occurred
End of status report
==== Log checksum 5FA56DE6573030BB3C2E01E3A2B9C254D4C2A9709409137EF818BD20AC0B126E ====
 
Содержание индексной карты (.CUE)
REM GENRE Avant-Garde
REM DATE 2008
REM DISCID 4211E105
REM COMMENT "ExactAudioCopy v1.0b3"
PERFORMER "Szilard Mezei Ensemble"
TITLE "Nad/Reed"
FILE "01 - Cirkula , Circle Saw.wav" WAVE
TRACK 01 AUDIO
TITLE "Cirkula / Circle Saw"
PERFORMER "Szilard Mezei Ensemble"
INDEX 01 00:00:00
TRACK 02 AUDIO
TITLE "Esolovak / Rain Horses"
PERFORMER "Szilard Mezei Ensemble"
INDEX 00 15:05:38
FILE "02 - Esolovak , Rain Horses.wav" WAVE
INDEX 01 00:00:00
TRACK 03 AUDIO
TITLE "Hep 1"
PERFORMER "Szilard Mezei Ensemble"
INDEX 00 15:04:06
FILE "03 - Hep 1.wav" WAVE
INDEX 01 00:00:00
FILE "04 - Hep 2.wav" WAVE
TRACK 04 AUDIO
TITLE "Hep 2"
PERFORMER "Szilard Mezei Ensemble"
INDEX 01 00:00:00
TRACK 05 AUDIO
TITLE "Fohasz / Petition"
PERFORMER "Szilard Mezei Ensemble"
INDEX 00 15:42:44
FILE "05 - Fohasz , Petition.wav" WAVE
INDEX 01 00:00:00
 
Лог проверки качества
d:\>d:\aucdtect -d/-m0 d:\zzz\*.wav
auCDtect: CD records authenticity detector, version 0.8.2
Copyright (c) 2004 Oleg Berngardt. All rights reserved.
Copyright (c) 2004 Alexander Djourik. All rights reserved.
------------------------------------------------------------
Processing file: [01. Cirkula - Circle Saw.wav]
------------------------------------------------------------
This track looks like CDDA with probability 99%
------------------------------------------------------------
Processing file: [02. Esolovak - Rain Horses.wav]
------------------------------------------------------------
This track looks like CDDA with probability 100%
------------------------------------------------------------
Processing file: [03. Hep 1.wav]
------------------------------------------------------------
This track looks like CDDA with probability 100%
------------------------------------------------------------
Processing file: [04. Hep 2.wav]
------------------------------------------------------------
This track looks like CDDA with probability 100%
------------------------------------------------------------
Processing file: [05. Fohasz - Petition.wav]
------------------------------------------------------------
This track looks like CDDA with probability 100%
------------------------------------------------------------
Final Conclusion:
------------------------------------------------------------
These tracks looks like CDDA with probability 100%
Доп. информация:
 
Album Info & AAJ Review
Compositions by Szilard Mezei
Rec. February 18 & 19, 2006, RTV, Novi Sad, Serbia
Sound engineer: Dusan Sevarlic
Graphic work: Erzsebet Mezei
Cover design: UNITgraphics.com
Special thanks to Ujvideki Szinhaz / Theater Of Novi Sad
Artistic director: Michel Passaretti
Szilard Mezei calls his music contemporary improvised music—a term that has often been used and abused, showing how music can either be transformed by imagination or lack thereof. The impact is in direct proportion to the skill of the musicians, which is why listening to the Szilard Mezei Ensemble is such a singular experience. The 14-piece band is a revelation, as comfortable in composed work as it is on the expanse of freedom.
The Hungarian Mezei was born in Senta, Serbia. In addition to the viola played on Nad/Reed, he also plays violin and double-bass, and has been a member of several conglomerations ranging from two to nine members. For his own projects he has assembled trios, quartets, quintets and, for this album, a big band. In the final analysis, however, it's the music that counts.
Mezei balances composition and improvisation deftly. He melds jazz, folk and classical music and, in the midst of doing so, opens the windows for his musicians to fly into the land of adventure, with each movement turning out to be a revelation.
The Ensemble plays with a cohesive voice, lending the initial structure to "Corkula/Circular Saw." The linearity dissolves into undulating lines and from then on, the course is unpredictable. At one moment the reeds are blazing and cutting an incendiary swath, at the next the flute is dancing on a light melody. Mezei's juxtapositions are remarkable as the horns explode before setting out to march in tandem. In a delightful turn, Slobodan Dragas (trumpet) goes the New Orleans route and Bogdan Rankovic (alto sax) swings with melodic grace before drawing Mezei into the crux.
A fanfare heralds "Fohasz/Petition." The classical theme sits in the middle, warm and tender, even as the drums and percussion rumble around and, when the horns raise their voice in a hosanna, the move beckons a swirling tide. The arrangement is open, accommodating the several voices perfectly. Rankovic plays the melody with a pure, open tone before digging deep and taking his alto into a curve, allowing pianist Milan Aleksic to make some dynamic statements as he weaves jazz and classical harmonies.
The music is stately and invigorating and never ceases to thrill. Mezei has fashioned a multi-dimensional and absorbing piece of art.
 
Состав
Svetlana Novakovic: flute
Emoke Zakany: oboe
Bogdan Rankovic: alto sax, bass clarinet
Slobodan Dragas: trumpet
Branislav Aksin: trombone
Kornel Papista: tuba
Szilard Mezei: viola, lead.
Albert Markos: violoncello (solos)
Viktor Molnar: violoncello
Ivan Burka: vibraphone, marimba, xilophone
Milan Aleksic: piano, celesta
Ervin Malina: double bass
Hunor G. Szabo: drums, marimba (left)
Istvan Csik: drums, percussions (right)
Any questions -> support@pro-jazz.com. По всем вопросам пишите -> support@pro-jazz.com
20:49
122
Нет комментариев. Ваш будет первым!