Вы используете незарегистрированную версию компонента "Вкладки"!

Поиск

(Avant-Garde Jazz, Modern Composition) Szilard Mezei Ensemble - Bot (2CD) - 2009, FLAC (tracks+.cue), lossless

(Avant-Garde Jazz, Modern Composition) Szilard Mezei Ensemble - Bot (2CD) - 2009, FLAC (tracks+.cue), lossless
Треклист:
Szilard Mezei Ensemble / Bot (2CD)
Жанр: Avant-Garde Jazz, Modern Composition
Страна-производитель диска: Poland
Год издания: 2009
Издатель (лейбл): Not Two Records
Номер по каталогу: MW 818-2
Страна: Serbia
Аудиокодек: FLAC (*.flac)
Тип рипа: tracks+.cue
Битрейт аудио: lossless
Продолжительность: 79:48 + 79:32
Источник (релизер): свой фирменный диск
Наличие сканов в содержимом раздачи:
Треклист:
 
CD1
1. Bot / Stick (2002) 25:24
2. Fold – Levego / Earth And Air (1998) 6:41
3. Tamara – Ki? / Tamara Who? (2002) 17:14
4. Yerma (Trad.) (2001) 6:52
5. Tibeti Gyors / Tibetan Allegro (2000) 13:04
6. Lepesben / In Step (2000) 10:32
 
CD2
1. Noi Box / Female Boxing (2004) 21:21
2. Csip Csip (2003) 17:42
3. Huzatos Huzat / Breezy Draught (2004) 10:34
4. Napszeker / Chariot Of Sun (2004) 16:41
5. Medium (2002) 13:08
 
Лог создания рипа
 
CD1
Exact Audio Copy V1.0 beta 3 from 29. August 2011
EAC extraction logfile from 21. November 2013, 22:22
Szilard Mezei Ensemble / Bot CD1
Used drive : PIONEER DVD-RW DVR-115D Adapter: 0 ID: 0
Read mode : Secure
Utilize accurate stream : Yes
Defeat audio cache : Yes
Make use of C2 pointers : No
Read offset correction : 48
Overread into Lead-In and Lead-Out : No
Fill up missing offset samples with silence : Yes
Delete leading and trailing silent blocks : No
Null samples used in CRC calculations : Yes
Used interface : Installed external ASPI interface
Gap handling : Appended to previous track
Used output format : User Defined Encoder
Selected bitrate : 896 kBit/s
Quality : High
Add ID3 tag : No
Command line compressor : C:\Program Files\Exact Audio Copy\FLAC\FLAC.EXE
Additional command line options : -6 -V -T "ARTIST=%artist%" -T "TITLE=%title%" -T "ALBUM=%albumtitle%" -T "DATE=%year%" -T "TRACKNUMBER=%tracknr%" -T "GENRE=%genre%" -T "COMMENT=%comment%" -T "BAND=%albuminterpret%" -T "COMPOSER=%composer%" %haslyrics%--tag-from-file=LYRICS="%lyricsfile%"%haslyrics% -T "DISCNUMBER=%cdnumber%" -T "TOTALDISCS=%totalcds%" -T "TOTALTRACKS=%numtracks%" %hascover%--picture="%coverfile%"%hascover% %source% -o %dest%
TOC of the extracted CD
Track | Start | Length | Start sector | End sector
---------------------------------------------------------
1 | 0:00.00 | 25:23.54 | 0 | 114278
2 | 25:23.54 | 6:40.61 | 114279 | 144339
3 | 32:04.40 | 17:14.04 | 144340 | 221893
4 | 49:18.44 | 6:54.16 | 221894 | 252959
5 | 56:12.60 | 13:05.74 | 252960 | 311908
6 | 69:18.59 | 10:29.19 | 311909 | 359102
Track 1
Filename D:\zzz\01 - Bot , Stick.wav
Pre-gap length 0:00:02.00
Peak level 100.0 %
Extraction speed 3.9 X
Track quality 100.0 %
Test CRC 6D8A275B
Copy CRC 6D8A275B
Track not present in AccurateRip database
Copy OK
Track 2
Filename D:\zzz\02 - Fold - Levego , Earth And Air.wav
Pre-gap length 0:00:02.00
Peak level 100.0 %
Extraction speed 4.5 X
Track quality 100.0 %
Test CRC 4AB49702
Copy CRC 4AB49702
Track not present in AccurateRip database
Copy OK
Track 3
Filename D:\zzz\03 - Tamara - Ki , Tamara Who.wav
Pre-gap length 0:00:02.00
Peak level 100.0 %
Extraction speed 5.2 X
Track quality 100.0 %
Test CRC 032DF06F
Copy CRC 032DF06F
Track not present in AccurateRip database
Copy OK
Track 4
Filename D:\zzz\04 - Yerma (Trad.).wav
Pre-gap length 0:00:02.00
Peak level 99.8 %
Extraction speed 5.4 X
Track quality 100.0 %
Test CRC C6F35B5F
Copy CRC C6F35B5F
Track not present in AccurateRip database
Copy OK
Track 5
Filename D:\zzz\05 - Tibeti Gyors , Tibetan Allegro.wav
Pre-gap length 0:00:02.00
Peak level 100.0 %
Extraction speed 6.0 X
Track quality 100.0 %
Test CRC 29FCCF48
Copy CRC 29FCCF48
Track not present in AccurateRip database
Copy OK
Track 6
Filename D:\zzz\06 - Lepesben , In Step.wav
Pre-gap length 0:00:02.00
Peak level 100.0 %
Extraction speed 6.3 X
Track quality 100.0 %
Test CRC D029DD5B
Copy CRC D029DD5B
Track not present in AccurateRip database
Copy OK
None of the tracks are present in the AccurateRip database
No errors occurred
End of status report
==== Log checksum 62A254B02D2BA680F3B048D197D49C3A99B3237B5A16F24BF2C5130C0B3ADD43 ====
 
CD2
Exact Audio Copy V1.0 beta 3 from 29. August 2011
EAC extraction logfile from 21. November 2013, 23:02
Szilard Mezei Ensemble / Bot CD2
Used drive : PIONEER DVD-RW DVR-115D Adapter: 0 ID: 0
Read mode : Secure
Utilize accurate stream : Yes
Defeat audio cache : Yes
Make use of C2 pointers : No
Read offset correction : 48
Overread into Lead-In and Lead-Out : No
Fill up missing offset samples with silence : Yes
Delete leading and trailing silent blocks : No
Null samples used in CRC calculations : Yes
Used interface : Installed external ASPI interface
Gap handling : Appended to previous track
Used output format : User Defined Encoder
Selected bitrate : 896 kBit/s
Quality : High
Add ID3 tag : No
Command line compressor : C:\Program Files\Exact Audio Copy\FLAC\FLAC.EXE
Additional command line options : -6 -V -T "ARTIST=%artist%" -T "TITLE=%title%" -T "ALBUM=%albumtitle%" -T "DATE=%year%" -T "TRACKNUMBER=%tracknr%" -T "GENRE=%genre%" -T "COMMENT=%comment%" -T "BAND=%albuminterpret%" -T "COMPOSER=%composer%" %haslyrics%--tag-from-file=LYRICS="%lyricsfile%"%haslyrics% -T "DISCNUMBER=%cdnumber%" -T "TOTALDISCS=%totalcds%" -T "TOTALTRACKS=%numtracks%" %hascover%--picture="%coverfile%"%hascover% %source% -o %dest%
TOC of the extracted CD
Track | Start | Length | Start sector | End sector
---------------------------------------------------------
1 | 0:00.00 | 21:22.72 | 0 | 96221
2 | 21:22.72 | 17:43.54 | 96222 | 176000
3 | 39:06.51 | 10:35.05 | 176001 | 223630
4 | 49:41.56 | 16:41.68 | 223631 | 298773
5 | 66:23.49 | 13:08.59 | 298774 | 357932
Track 1
Filename D:\zzz\01 - Noi Box , Female Boxing.wav
Pre-gap length 0:00:02.00
Peak level 100.0 %
Extraction speed 3.8 X
Track quality 100.0 %
Test CRC 1FF43B0E
Copy CRC 1FF43B0E
Track not present in AccurateRip database
Copy OK
Track 2
Filename D:\zzz\02 - Csip Csip.wav
Pre-gap length 0:00:02.00
Peak level 100.0 %
Extraction speed 4.6 X
Track quality 99.9 %
Test CRC 71BD0756
Copy CRC 71BD0756
Track not present in AccurateRip database
Copy OK
Track 3
Filename D:\zzz\03 - Huzatos Huzat , Breezy Draught.wav
Pre-gap length 0:00:02.00
Peak level 100.0 %
Extraction speed 5.2 X
Track quality 100.0 %
Test CRC 1940C114
Copy CRC 1940C114
Track not present in AccurateRip database
Copy OK
Track 4
Filename D:\zzz\04 - Napszeker , Chariot Of Sun.wav
Pre-gap length 0:00:02.00
Peak level 100.0 %
Extraction speed 5.9 X
Track quality 100.0 %
Test CRC F2105B5B
Copy CRC F2105B5B
Track not present in AccurateRip database
Copy OK
Track 5
Filename D:\zzz\05 - Medium.wav
Pre-gap length 0:00:02.00
Peak level 100.0 %
Extraction speed 6.3 X
Track quality 100.0 %
Test CRC FDD42E52
Copy CRC FDD42E52
Track not present in AccurateRip database
Copy OK
None of the tracks are present in the AccurateRip database
No errors occurred
End of status report
==== Log checksum DACB981CC64EE3625F82FFE4BDC7B3286D6E74C4A3F5C639287B8A7C124C52B4 ====
 
Содержание индексной карты (.CUE)
 
CD1
REM GENRE Avant-Garde
REM DATE 2009
REM DISCID 4E12B406
REM COMMENT "ExactAudioCopy v1.0b3"
PERFORMER "Szilard Mezei Ensemble"
TITLE "Bot CD1"
FILE "01 - Bot , Stick.wav" WAVE
TRACK 01 AUDIO
TITLE "Bot / Stick"
PERFORMER "Szilard Mezei Ensemble"
INDEX 01 00:00:00
TRACK 02 AUDIO
TITLE "Fold - Levego / Earth And Air"
PERFORMER "Szilard Mezei Ensemble"
INDEX 00 25:21:54
FILE "02 - Fold - Levego , Earth And Air.wav" WAVE
INDEX 01 00:00:00
TRACK 03 AUDIO
TITLE "Tamara - Ki? / Tamara Who?"
PERFORMER "Szilard Mezei Ensemble"
INDEX 00 06:38:61
FILE "03 - Tamara - Ki , Tamara Who.wav" WAVE
INDEX 01 00:00:00
TRACK 04 AUDIO
TITLE "Yerma (Trad.)"
PERFORMER "Szilard Mezei Ensemble"
INDEX 00 17:12:04
FILE "04 - Yerma (Trad.).wav" WAVE
INDEX 01 00:00:00
TRACK 05 AUDIO
TITLE "Tibeti Gyors / Tibetan Allegro"
PERFORMER "Szilard Mezei Ensemble"
INDEX 00 06:52:16
FILE "05 - Tibeti Gyors , Tibetan Allegro.wav" WAVE
INDEX 01 00:00:00
TRACK 06 AUDIO
TITLE "Lepesben / In Step"
PERFORMER "Szilard Mezei Ensemble"
INDEX 00 13:03:74
FILE "06 - Lepesben , In Step.wav" WAVE
INDEX 01 00:00:00
 
CD2
REM GENRE Avant-Garde
REM DATE 2009
REM DISCID 5112A405
REM COMMENT "ExactAudioCopy v1.0b3"
PERFORMER "Szilard Mezei Ensemble"
TITLE "Bot CD2"
FILE "01 - Noi Box , Female Boxing.wav" WAVE
TRACK 01 AUDIO
TITLE "Noi Box / Female Boxing"
PERFORMER "Szilard Mezei Ensemble"
INDEX 01 00:00:00
TRACK 02 AUDIO
TITLE "Csip Csip"
PERFORMER "Szilard Mezei Ensemble"
INDEX 00 21:20:72
FILE "02 - Csip Csip.wav" WAVE
INDEX 01 00:00:00
TRACK 03 AUDIO
TITLE "Huzatos Huzat / Breezy Draught"
PERFORMER "Szilard Mezei Ensemble"
INDEX 00 17:41:54
FILE "03 - Huzatos Huzat , Breezy Draught.wav" WAVE
INDEX 01 00:00:00
TRACK 04 AUDIO
TITLE "Napszeker / Chariot Of Sun"
PERFORMER "Szilard Mezei Ensemble"
INDEX 00 10:33:05
FILE "04 - Napszeker , Chariot Of Sun.wav" WAVE
INDEX 01 00:00:00
TRACK 05 AUDIO
TITLE "Medium"
PERFORMER "Szilard Mezei Ensemble"
INDEX 00 16:39:68
FILE "05 - Medium.wav" WAVE
INDEX 01 00:00:00
 
Лог проверки качества
d:\>d:\aucdtect -d/-m0 d:\zzz\*.wav
auCDtect: CD records authenticity detector, version 0.8.2
Copyright (c) 2004 Oleg Berngardt. All rights reserved.
Copyright (c) 2004 Alexander Djourik. All rights reserved.
------------------------------------------------------------
Processing file: [01. Bot - Stick.wav]
------------------------------------------------------------
This track looks like CDDA with probability 100%
------------------------------------------------------------
Processing file: [01. Noi Box - Female Boxing.wav]
------------------------------------------------------------
This track looks like CDDA with probability 100%
------------------------------------------------------------
Processing file: [02. Csip Csip.wav]
------------------------------------------------------------
This track looks like CDDA with probability 99%
------------------------------------------------------------
Processing file: [02. Fold - Levego - Earth And Air.wav]
------------------------------------------------------------
This track looks like CDDA with probability 100%
------------------------------------------------------------
Processing file: [03. Huzatos Huzat - Breezy Draught.wav]
------------------------------------------------------------
This track looks like CDDA with probability 100%
------------------------------------------------------------
Processing file: [03. Tamara - Ki - Tamara Who.wav]
------------------------------------------------------------
This track looks like CDDA with probability 99%
------------------------------------------------------------
Processing file: [04. Napszeker - Chariot Of Sun.wav]
------------------------------------------------------------
This track looks like CDDA with probability 100%
------------------------------------------------------------
Processing file: [04. Yerma (Trad.).wav]
------------------------------------------------------------
This track looks like CDDA with probability 100%
------------------------------------------------------------
Processing file: [05. Medium.wav]
------------------------------------------------------------
This track looks like CDDA with probability 99%
------------------------------------------------------------
Processing file: [05. Tibeti Gyors - Tibetan Allegro.wav]
------------------------------------------------------------
This track looks like CDDA with probability 100%
------------------------------------------------------------
Processing file: [06. Lepesben - In Step.wav]
------------------------------------------------------------
This track looks like CDDA with probability 100%
------------------------------------------------------------
Final Conclusion:
------------------------------------------------------------
These tracks looks like CDDA with probability 100%
Доп. информация:
 
Album Info
Composed by Szilard Mezei
Recorded at Novi Sad Theatre on 8 May and 24 June 2004 by Studio 'Vilenjak' - Lazar Zivanac & Sasa Milankov
Graphics work: Mezei Erzsebet
Cover design: UNITgraphics.com
Recording released with the help of Pokrajinski Sekretarijat za Obrazovanje i Kulturu Vojvodine
 
Состав
Emoke Zakany: oboe
Bogdan Rankovic: bass clarinet, clarinet, alto saxophone
Damir Bacikin: trumpet
Lordan Skenderovic: trumpet (1.1-1.4,2.1,2.5)
Slobodan Dragas: trumpet (1.5,1.6,2.2-2.4)
Branislav Aksin: trombone
Kornel Papista: tuba
Szilard Mezei: viola
Radmila Stanisic: violoncello
Ervin Malina: double bass
Istvan Csik: drums, percussions
По всем вопросам пишите личное сообщение пользователю M0p94ok.
20:50
179
Нет комментариев. Ваш будет первым!