Вы используете незарегистрированную версию компонента "Вкладки"!

Поиск

(Contemporary Jazz, Plainisphare) La Fanfare du Loup - L'Ile du cabotin - 2001, FLAC (tracks+.cue), lossless

(Contemporary Jazz, Plainisphare) La Fanfare du Loup - L'Ile du cabotin - 2001, FLAC (tracks+.cue), lossless
Треклист:
La Fanfare du Loup / L'Île du cabotin
Жанр: Contemporary Jazz, Plainisphare
Страна-производитель диска: Switzerland
Год издания: 2001
Издатель (лейбл): La Fanfare du Loup / Plainisphare
Номер по каталогу: PAV 830
Аудиокодек: FLAC (*.flac)
Тип рипа: tracks+.cue
Битрейт аудио: lossless
Продолжительность: 56:42
Источник (релизер): я
Наличие сканов в содержимом раздачи: нет
Треклист:
01. The Lily (Yves Massy / texte de William Blake) 2:35
02. Ahora (Yves Cerf) 5:24
03. Un matin sans Type-Exe (Yves Massy) 5:26
04. L’Île du cabotin (Marco Sierro) 3:30
05. Plastic Loukoum (Christian Graf / paroles de Zerdani Driss) 4:06
06. E. K. sème le trouble (Yves Massy) 3:12
07. Marche brute (Ian Gordon-Lennox) 2:16
08. Llego Emilio (Yves Cerf) 4:09
09. Space canard funk (Marco Sierro) 4:07
10. Valse bernoise (Ian Gordon-Lennox) 4:33
11. La Calypso de Bresse (Yves Massy) 5:36
12. Bleu tango bleu (Yves Cerf) 4:01
13. Seidenweg (Yves Cerf) 5:09
14. Jacksong (Ian Gordon-Lennox) 2:37
Enregistré au studio Axis à Genève en juillet 2001.
Raúl Esmerode – batterie
Jean-Luc Riesen – contrebasse et basse électrique
Sandro Rossetti – contrebasse (sur 4, 12 et 13)
Christian Graf – guitares électriques
François Chevrolet – saxophone baryton
Yves Cerf – saxophone ténor
Marco Sierro – saxophone alto
Christophe Berthet – saxophones soprano et alto
Yves Massy – trombone
Ian Gordon-Lennox – trompette, euphonium, tuba
Bill Holden – trompette, vocal
 
Лог создания рипа
Exact Audio Copy V1.0 beta 3 from 29. August 2011
EAC extraction logfile from 10. October 2013, 19:51
La Fanfare du Loup / L'Île du cabotin
Used drive : SlimtypeeNAU508 5 Adapter: 1 ID: 0
Read mode : Secure
Utilize accurate stream : Yes
Defeat audio cache : Yes
Make use of C2 pointers : No
Read offset correction : 6
Overread into Lead-In and Lead-Out : No
Fill up missing offset samples with silence : Yes
Delete leading and trailing silent blocks : No
Null samples used in CRC calculations : Yes
Used interface : Native Win32 interface for Win NT & 2000
Gap handling : Appended to previous track
Used output format : User Defined Encoder
Selected bitrate : 768 kBit/s
Quality : High
Add ID3 tag : No
Command line compressor : C:\Program Files (x86)\Exact Audio Copy\Flac\flac.exe
Additional command line options : -8 -V -T "ARTIST=%artist%" -T "TITLE=%title%" -T "ALBUM=%albumtitle%" -T "DATE=%year%" -T "TRACKNUMBER=%tracknr%" -T "GENRE=%genre%" -T "PERFORMER=%albuminterpret%" -T "COMPOSER=%composer%" %haslyrics%--tag-from-file=LYRICS="%lyricsfile%"%haslyrics% -T "ALBUMARTIST=%albumartist%" -T "DISCNUMBER=%cdnumber%" -T "TOTALDISCS=%totalcds%" -T "TOTALTRACKS=%numtracks%" -T "COMMENT=%comment%" %source% -o %dest%
TOC of the extracted CD
Track | Start | Length | Start sector | End sector
---------------------------------------------------------
1 | 0:00.00 | 2:35.16 | 0 | 11640
2 | 2:35.16 | 5:24.06 | 11641 | 35946
3 | 7:59.22 | 5:26.02 | 35947 | 60398
4 | 13:25.24 | 3:30.05 | 60399 | 76153
5 | 16:55.29 | 4:06.04 | 76154 | 94607
6 | 21:01.33 | 3:11.38 | 94608 | 108970
7 | 24:12.71 | 2:16.26 | 108971 | 119196
8 | 26:29.22 | 4:08.42 | 119197 | 137838
9 | 30:37.64 | 4:07.18 | 137839 | 156381
10 | 34:45.07 | 4:33.14 | 156382 | 176870
11 | 39:18.21 | 5:36.10 | 176871 | 202080
12 | 44:54.31 | 4:01.19 | 202081 | 220174
13 | 48:55.50 | 5:09.02 | 220175 | 243351
14 | 54:04.52 | 2:37.02 | 243352 | 255128
Track 1
Filename C:\EAC rips\01 - The Lily.wav
Pre-gap length 0:00:02.00
Peak level 96.8 %
Extraction speed 0.9 X
Track quality 100.0 %
Test CRC 8B580598
Copy CRC 8B580598
Track not present in AccurateRip database
Copy OK
Track 2
Filename C:\EAC rips\02 - Ahora.wav
Pre-gap length 0:00:02.66
Peak level 96.8 %
Extraction speed 1.2 X
Track quality 100.0 %
Test CRC 78D51372
Copy CRC 78D51372
Track not present in AccurateRip database
Copy OK
Track 3
Filename C:\EAC rips\03 - Un matin sans Type-Exe.wav
Pre-gap length 0:00:03.40
Peak level 96.6 %
Extraction speed 1.2 X
Track quality 99.9 %
Test CRC C35B836A
Copy CRC C35B836A
Track not present in AccurateRip database
Copy OK
Track 4
Filename C:\EAC rips\04 - L'Île du cabotin.wav
Pre-gap length 0:00:04.27
Peak level 96.8 %
Extraction speed 1.4 X
Track quality 100.0 %
Test CRC 221D6348
Copy CRC 221D6348
Track not present in AccurateRip database
Copy OK
Track 5
Filename C:\EAC rips\05 - Plastic Loukoum.wav
Pre-gap length 0:00:04.25
Peak level 96.8 %
Extraction speed 1.5 X
Track quality 100.0 %
Test CRC C6F13A05
Copy CRC C6F13A05
Track not present in AccurateRip database
Copy OK
Track 6
Filename C:\EAC rips\06 - E. K. sème le trouble.wav
Pre-gap length 0:00:02.61
Peak level 97.4 %
Extraction speed 1.5 X
Track quality 100.0 %
Test CRC C230D7E2
Copy CRC C230D7E2
Track not present in AccurateRip database
Copy OK
Track 7
Filename C:\EAC rips\07 - Marche brute.wav
Pre-gap length 0:00:04.18
Peak level 96.3 %
Extraction speed 1.5 X
Track quality 100.0 %
Test CRC 176067A1
Copy CRC 176067A1
Track not present in AccurateRip database
Copy OK
Track 8
Filename C:\EAC rips\08 - Llego Emilio.wav
Pre-gap length 0:00:03.53
Peak level 97.2 %
Extraction speed 1.7 X
Track quality 100.0 %
Test CRC 01A159C4
Copy CRC 01A159C4
Track not present in AccurateRip database
Copy OK
Track 9
Filename C:\EAC rips\09 - Space canard funk.wav
Pre-gap length 0:00:04.19
Peak level 97.4 %
Extraction speed 1.8 X
Track quality 100.0 %
Test CRC 2BAA183C
Copy CRC 2BAA183C
Track not present in AccurateRip database
Copy OK
Track 10
Filename C:\EAC rips\10 - Valse bernoise.wav
Pre-gap length 0:00:05.44
Peak level 97.3 %
Extraction speed 1.7 X
Track quality 99.9 %
Test CRC E0CC1966
Copy CRC E0CC1966
Track not present in AccurateRip database
Copy OK
Track 11
Filename C:\EAC rips\11 - La Calypso de Bresse.wav
Pre-gap length 0:00:05.08
Peak level 97.1 %
Extraction speed 2.0 X
Track quality 100.0 %
Test CRC 1A5E38A9
Copy CRC 1A5E38A9
Track not present in AccurateRip database
Copy OK
Track 12
Filename C:\EAC rips\12 - Bleu tango bleu.wav
Pre-gap length 0:00:04.64
Peak level 96.5 %
Extraction speed 2.0 X
Track quality 100.0 %
Test CRC B62AC746
Copy CRC B62AC746
Track not present in AccurateRip database
Copy OK
Track 13
Filename C:\EAC rips\13 - Seidenweg.wav
Pre-gap length 0:00:04.20
Peak level 97.0 %
Extraction speed 2.1 X
Track quality 100.0 %
Test CRC C7B6D646
Copy CRC C7B6D646
Track not present in AccurateRip database
Copy OK
Track 14
Filename C:\EAC rips\14 - Jacksong.wav
Pre-gap length 0:00:20.52
Peak level 93.3 %
Extraction speed 1.6 X
Track quality 99.9 %
Test CRC 14E000BA
Copy CRC 14E000BA
Track not present in AccurateRip database
Copy OK
None of the tracks are present in the AccurateRip database
No errors occurred
End of status report
---- CUETools DB Plugin V2.1.4
[CTDB TOCID: AyTjUI5Syo6d.LKk3XSE6yS819k-] disk not present in database
Submit result: AyTjUI5Syo6d.LKk3XSE6yS819k- has been uploaded
==== Log checksum 42B5C36394B87E3F1D75E33B1147887956A1B13FAACCDBA9110FBE99DDF61A79 ====
 
Содержание индексной карты (.CUE)
REM GENRE Jazz
REM DATE 2002
REM DISCID CA0D490E
REM COMMENT "ExactAudioCopy v1.0b3"
PERFORMER "La Fanfare du Loup"
TITLE "L'Île du cabotin"
FILE "01 - The Lily.wav" WAVE
TRACK 01 AUDIO
TITLE "The Lily"
PERFORMER "La Fanfare du Loup"
INDEX 01 00:00:00
TRACK 02 AUDIO
TITLE "Ahora"
PERFORMER "La Fanfare du Loup"
INDEX 00 02:32:25
FILE "02 - Ahora.wav" WAVE
INDEX 01 00:00:00
TRACK 03 AUDIO
TITLE "Un matin sans Type-Exe"
PERFORMER "La Fanfare du Loup"
INDEX 00 05:20:41
FILE "03 - Un matin sans Type-Exe.wav" WAVE
INDEX 01 00:00:00
TRACK 04 AUDIO
TITLE "L'Île du cabotin"
PERFORMER "La Fanfare du Loup"
INDEX 00 05:21:50
FILE "04 - L'Île du cabotin.wav" WAVE
INDEX 01 00:00:00
TRACK 05 AUDIO
TITLE "Plastic Loukoum"
PERFORMER "La Fanfare du Loup"
INDEX 00 03:25:55
FILE "05 - Plastic Loukoum.wav" WAVE
INDEX 01 00:00:00
TRACK 06 AUDIO
TITLE "E. K. sème le trouble"
PERFORMER "La Fanfare du Loup"
INDEX 00 04:03:18
FILE "06 - E. K. sème le trouble.wav" WAVE
INDEX 01 00:00:00
TRACK 07 AUDIO
TITLE "Marche brute"
PERFORMER "La Fanfare du Loup"
INDEX 00 03:07:20
FILE "07 - Marche brute.wav" WAVE
INDEX 01 00:00:00
TRACK 08 AUDIO
TITLE "Llego Emilio"
PERFORMER "La Fanfare du Loup"
INDEX 00 02:12:48
FILE "08 - Llego Emilio.wav" WAVE
INDEX 01 00:00:00
TRACK 09 AUDIO
TITLE "Space canard funk"
PERFORMER "La Fanfare du Loup"
INDEX 00 04:04:23
FILE "09 - Space canard funk.wav" WAVE
INDEX 01 00:00:00
TRACK 10 AUDIO
TITLE "Valse bernoise"
PERFORMER "La Fanfare du Loup"
INDEX 00 04:01:49
FILE "10 - Valse bernoise.wav" WAVE
INDEX 01 00:00:00
TRACK 11 AUDIO
TITLE "La Calypso de Bresse"
PERFORMER "La Fanfare du Loup"
INDEX 00 04:28:06
FILE "11 - La Calypso de Bresse.wav" WAVE
INDEX 01 00:00:00
TRACK 12 AUDIO
TITLE "Bleu tango bleu"
PERFORMER "La Fanfare du Loup"
INDEX 00 05:31:21
FILE "12 - Bleu tango bleu.wav" WAVE
INDEX 01 00:00:00
TRACK 13 AUDIO
TITLE "Seidenweg"
PERFORMER "La Fanfare du Loup"
INDEX 00 03:56:74
FILE "13 - Seidenweg.wav" WAVE
INDEX 01 00:00:00
TRACK 14 AUDIO
TITLE "Jacksong"
PERFORMER "La Fanfare du Loup"
INDEX 00 04:48:25
FILE "14 - Jacksong.wav" WAVE
INDEX 01 00:00:00
Any questions -> support@pro-jazz.com. По всем вопросам пишите -> support@pro-jazz.com
20:51
143
Нет комментариев. Ваш будет первым!