Вы используете незарегистрированную версию компонента "Вкладки"!

Поиск

(Avant-Garde Jazz, Modern Composition, Nine Winds) [CD] Vinny Golia - Music For Like Instruments - The Eb Saxophones - 2003, FLAC (tracks+.cue), lossless

(Avant-Garde Jazz, Modern Composition, Nine Winds) [CD] Vinny Golia - Music For Like Instruments - The Eb Saxophones - 2003, FLAC (tracks+.cue), lossless
Треклист:
Vinny Golia / Music For Like Instruments - The Eb Saxophones
Жанр: Avant-Garde Jazz, Modern Composition, Nine Winds
Носитель: CD
Страна-производитель диска: US
Год издания: 2003
Издатель (лейбл): 9 Winds Records
Номер по каталогу: NWCD0249
Страна: US
Аудиокодек: FLAC (*.flac)
Тип рипа: tracks+.cue
Битрейт аудио: lossless
Продолжительность: 70:01
Источник (релизер): свой фирменный диск
Наличие сканов в содержимом раздачи:
Треклист:
1. Would It Bother You? 7:37
2. Scharwznegger 8:38
3. We Believe The Use Of Homo Sapiens Is Time Sensitive 5:34
4. For Maurice Ohana 3:02
5. Mothing From The Sea 6:58
6. Bopus, For Franco Boragoni 1:16
7. Chronos 7:25
8. One Additional Thing... 5:28
9. Winston Misbehaves With The Smoking Macedonian To Comfort His Loneliness 1:06
10. Trilled To Be Here 2:22
11. Raising Of The Pillows 5:09
12. Name Someone You Don't Know 7:25
13. Killer Bees & Bannanas 3:21
14. Variations & Themes In Ab Based On The Barelli Sequences 4:15
 
Лог создания рипа
Exact Audio Copy V1.0 beta 3 from 29. August 2011
EAC extraction logfile from 17. January 2014, 23:08
Vinny Golia / Music For Like Instruments - The Eb Saxophones
Used drive : PIONEER DVD-RW DVR-115D Adapter: 0 ID: 0
Read mode : Secure
Utilize accurate stream : Yes
Defeat audio cache : Yes
Make use of C2 pointers : No
Read offset correction : 48
Overread into Lead-In and Lead-Out : No
Fill up missing offset samples with silence : Yes
Delete leading and trailing silent blocks : No
Null samples used in CRC calculations : Yes
Used interface : Installed external ASPI interface
Gap handling : Appended to previous track
Used output format : User Defined Encoder
Selected bitrate : 896 kBit/s
Quality : High
Add ID3 tag : No
Command line compressor : C:\Program Files\Exact Audio Copy\FLAC\FLAC.EXE
Additional command line options : -6 -V -T "ARTIST=%artist%" -T "TITLE=%title%" -T "ALBUM=%albumtitle%" -T "DATE=%year%" -T "TRACKNUMBER=%tracknr%" -T "GENRE=%genre%" -T "COMMENT=%comment%" -T "BAND=%albuminterpret%" -T "COMPOSER=%composer%" %haslyrics%--tag-from-file=LYRICS="%lyricsfile%"%haslyrics% -T "DISCNUMBER=%cdnumber%" -T "TOTALDISCS=%totalcds%" -T "TOTALTRACKS=%numtracks%" %hascover%--picture="%coverfile%"%hascover% %source% -o %dest%
TOC of the extracted CD
Track | Start | Length | Start sector | End sector
---------------------------------------------------------
1 | 0:00.00 | 7:40.01 | 0 | 34500
2 | 7:40.01 | 8:40.47 | 34501 | 73547
3 | 16:20.48 | 5:35.59 | 73548 | 98731
4 | 21:56.32 | 3:01.69 | 98732 | 112375
5 | 24:58.26 | 7:00.63 | 112376 | 143938
6 | 31:59.14 | 1:15.43 | 143939 | 149606
7 | 33:14.57 | 7:27.49 | 149607 | 183180
8 | 40:42.31 | 5:31.15 | 183181 | 208020
9 | 46:13.46 | 1:09.27 | 208021 | 213222
10 | 47:22.73 | 2:21.67 | 213223 | 223864
11 | 49:44.65 | 5:11.40 | 223865 | 247229
12 | 54:56.30 | 7:28.29 | 247230 | 280858
13 | 62:24.59 | 3:20.73 | 280859 | 295931
14 | 65:45.57 | 4:15.23 | 295932 | 315079
Track 1
Filename D:\zzz\01 - Would It Bother You.wav
Pre-gap length 0:00:02.00
Peak level 96.6 %
Extraction speed 4.8 X
Track quality 100.0 %
Test CRC CFFA06D4
Copy CRC CFFA06D4
Accurately ripped (confidence 1) [584CF114] (AR v1)
Copy OK
Track 2
Filename D:\zzz\02 - Scharwznegger.wav
Pre-gap length 0:00:03.00
Peak level 96.6 %
Extraction speed 5.7 X
Track quality 100.0 %
Test CRC A0F2FC4D
Copy CRC A0F2FC4D
Accurately ripped (confidence 1) [E1223B36] (AR v1)
Copy OK
Track 3
Filename D:\zzz\03 - We Believe The Use Of Homo Sapiens Is Time Sensitive.wav
Pre-gap length 0:00:03.00
Peak level 96.6 %
Extraction speed 6.0 X
Track quality 100.0 %
Test CRC 5494440A
Copy CRC 5494440A
Accurately ripped (confidence 1) [DF0519B0] (AR v1)
Copy OK
Track 4
Filename D:\zzz\04 - For Maurice Ohana.wav
Pre-gap length 0:00:02.00
Peak level 96.6 %
Extraction speed 5.1 X
Track quality 99.9 %
Test CRC 1CC696D3
Copy CRC 1CC696D3
Accurately ripped (confidence 1) [C5CBA4CA] (AR v1)
Copy OK
Track 5
Filename D:\zzz\05 - Mothing From The Sea.wav
Peak level 96.6 %
Extraction speed 6.9 X
Track quality 100.0 %
Test CRC A19B3022
Copy CRC A19B3022
Accurately ripped (confidence 1) [8D525150] (AR v1)
Copy OK
Track 6
Filename D:\zzz\06 - Bopus, For Franco Boragoni.wav
Pre-gap length 0:00:03.00
Peak level 96.6 %
Extraction speed 5.2 X
Track quality 100.0 %
Test CRC 4E0A9B6C
Copy CRC 4E0A9B6C
Accurately ripped (confidence 1) [830EB174] (AR v1)
Copy OK
Track 7
Filename D:\zzz\07 - Chronos.wav
Peak level 96.6 %
Extraction speed 7.4 X
Track quality 100.0 %
Test CRC 10716F8D
Copy CRC 10716F8D
Accurately ripped (confidence 1) [02A5906E] (AR v1)
Copy OK
Track 8
Filename D:\zzz\08 - One Additional Thing....wav
Pre-gap length 0:00:03.00
Peak level 93.2 %
Extraction speed 7.6 X
Track quality 100.0 %
Test CRC 9885AA1F
Copy CRC 9885AA1F
Accurately ripped (confidence 1) [29C1FA0C] (AR v1)
Copy OK
Track 9
Filename D:\zzz\09 - Winston Misbehaves With The Smoking Macedonian To Comfort His Lonliness.wav
Pre-gap length 0:00:03.00
Peak level 96.6 %
Extraction speed 4.2 X
Track quality 99.8 %
Test CRC 657CEC4C
Copy CRC 657CEC4C
Accurately ripped (confidence 1) [200C1824] (AR v1)
Copy OK
Track 10
Filename D:\zzz\10 - Trilled To Be Here.wav
Pre-gap length 0:00:03.00
Peak level 96.6 %
Extraction speed 6.9 X
Track quality 100.0 %
Test CRC 0E48754B
Copy CRC 0E48754B
Accurately ripped (confidence 1) [2DD9BF00] (AR v1)
Copy OK
Track 11
Filename D:\zzz\11 - Raising Of The Pillows.wav
Peak level 96.6 %
Extraction speed 8.1 X
Track quality 100.0 %
Test CRC 171CB87D
Copy CRC 171CB87D
Accurately ripped (confidence 1) [5E9E1293] (AR v1)
Copy OK
Track 12
Filename D:\zzz\12 - Name Someone You Don't Know.wav
Pre-gap length 0:00:03.00
Peak level 96.6 %
Extraction speed 8.7 X
Track quality 100.0 %
Test CRC EB44B809
Copy CRC EB44B809
Accurately ripped (confidence 1) [783D44DD] (AR v1)
Copy OK
Track 13
Filename D:\zzz\13 - Killer Bees & Bannanas.wav
Pre-gap length 0:00:03.00
Peak level 96.6 %
Extraction speed 8.1 X
Track quality 100.0 %
Test CRC B4C71A80
Copy CRC B4C71A80
Accurately ripped (confidence 1) [F06AB6F8] (AR v1)
Copy OK
Track 14
Filename D:\zzz\14 - Variations & Themes In Ab Based On The Barelli Sequences.wav
Peak level 96.6 %
Extraction speed 7.7 X
Track quality 99.9 %
Test CRC 5FE3D3D4
Copy CRC 5FE3D3D4
Accurately ripped (confidence 1) [8168386D] (AR v1)
Copy OK
All tracks accurately ripped
No errors occurred
End of status report
==== Log checksum 8376ED3A6DDE53BDA7DB3F4D79F26285176B5D66F1BB0C9C2816FC7A30D649A1 ====
 
Содержание индексной карты (.CUE)
REM GENRE "Avant-Garde Jazz"
REM DATE 2003
REM DISCID E910690E
REM COMMENT "ExactAudioCopy v1.0b3"
PERFORMER "Vinny Golia"
TITLE "Music For Like Instruments - The Eb Saxophones"
FILE "01 - Would It Bother You.wav" WAVE
TRACK 01 AUDIO
TITLE "Would It Bother You?"
PERFORMER "Vinny Golia"
INDEX 01 00:00:00
TRACK 02 AUDIO
TITLE "Scharwznegger"
PERFORMER "Vinny Golia"
INDEX 00 07:37:01
FILE "02 - Scharwznegger.wav" WAVE
INDEX 01 00:00:00
TRACK 03 AUDIO
TITLE "We Believe The Use Of Homo Sapiens Is Time Sensitive"
PERFORMER "Vinny Golia"
INDEX 00 08:37:47
FILE "03 - We Believe The Use Of Homo Sapiens Is Time Sensitive.wav" WAVE
INDEX 01 00:00:00
TRACK 04 AUDIO
TITLE "For Maurice Ohana"
PERFORMER "Vinny Golia"
INDEX 00 05:33:59
FILE "04 - For Maurice Ohana.wav" WAVE
INDEX 01 00:00:00
FILE "05 - Mothing From The Sea.wav" WAVE
TRACK 05 AUDIO
TITLE "Mothing From The Sea"
PERFORMER "Vinny Golia"
INDEX 01 00:00:00
TRACK 06 AUDIO
TITLE "Bopus, For Franco Boragoni"
PERFORMER "Vinny Golia"
INDEX 00 06:57:63
FILE "06 - Bopus, For Franco Boragoni.wav" WAVE
INDEX 01 00:00:00
FILE "07 - Chronos.wav" WAVE
TRACK 07 AUDIO
TITLE "Chronos"
PERFORMER "Vinny Golia"
INDEX 01 00:00:00
TRACK 08 AUDIO
TITLE "One Additional Thing..."
PERFORMER "Vinny Golia"
INDEX 00 07:24:49
FILE "08 - One Additional Thing....wav" WAVE
INDEX 01 00:00:00
TRACK 09 AUDIO
TITLE "Winston Misbehaves With The Smoking Macedonian To Comfort His Lonliness"
PERFORMER "Vinny Golia"
INDEX 00 05:28:15
FILE "09 - Winston Misbehaves With The Smoking Macedonian To Comfort His Lonliness.wav" WAVE
INDEX 01 00:00:00
TRACK 10 AUDIO
TITLE "Trilled To Be Here"
PERFORMER "Vinny Golia"
INDEX 00 01:06:27
FILE "10 - Trilled To Be Here.wav" WAVE
INDEX 01 00:00:00
FILE "11 - Raising Of The Pillows.wav" WAVE
TRACK 11 AUDIO
TITLE "Raising Of The Pillows"
PERFORMER "Vinny Golia"
INDEX 01 00:00:00
TRACK 12 AUDIO
TITLE "Name Someone You Don't Know"
PERFORMER "Vinny Golia"
INDEX 00 05:08:40
FILE "12 - Name Someone You Don't Know.wav" WAVE
INDEX 01 00:00:00
TRACK 13 AUDIO
TITLE "Killer Bees & Bannanas"
PERFORMER "Vinny Golia"
INDEX 00 07:25:29
FILE "13 - Killer Bees & Bannanas.wav" WAVE
INDEX 01 00:00:00
FILE "14 - Variations & Themes In Ab Based On The Barelli Sequences.wav" WAVE
TRACK 14 AUDIO
TITLE "Variations & Themes In Ab Based On The Barelli Sequences"
PERFORMER "Vinny Golia"
INDEX 01 00:00:00
 
Лог проверки качества
d:\>d:\aucdtect -d/-m0 d:\zzz\*.wav
auCDtect: CD records authenticity detector, version 0.8.2
Copyright (c) 2004 Oleg Berngardt. All rights reserved.
Copyright (c) 2004 Alexander Djourik. All rights reserved.
------------------------------------------------------------
Processing file: [01. Would It Bother You.wav]
------------------------------------------------------------
This track looks like CDDA with probability 100%
------------------------------------------------------------
Processing file: [02. Scharwznegger.wav]
------------------------------------------------------------
This track looks like CDDA with probability 100%
------------------------------------------------------------
Processing file: [03. We Believe The Use Of Homo Sapiens Is Time Sensitive.wav]
------------------------------------------------------------
This track looks like CDDA with probability 100%
------------------------------------------------------------
Processing file: [04. For Maurice Ohana.wav]
------------------------------------------------------------
This track looks like MPEG with probability 100%
------------------------------------------------------------
Processing file: [05. Mothing From The Sea.wav]
------------------------------------------------------------
This track looks like CDDA with probability 100%
------------------------------------------------------------
Processing file: [06. Bopus, For Franco Boragoni.wav]
------------------------------------------------------------
This track looks like MPEG with probability 90%
------------------------------------------------------------
Processing file: [07. Chronos.wav]
------------------------------------------------------------
This track looks like CDDA with probability 100%
------------------------------------------------------------
Processing file: [08. One Additional Thing....wav]
------------------------------------------------------------
This track looks like CDDA with probability 100%
------------------------------------------------------------
Processing file: [09. Winston Misbehaves With The Smoking Macedonian To Comfort His Lonliness.wav]
------------------------------------------------------------
This track looks like CDDA with probability 87%
------------------------------------------------------------
Processing file: [10. Trilled To Be Here.wav]
------------------------------------------------------------
This track looks like CDDA with probability 42%
------------------------------------------------------------
Processing file: [11. Raising Of The Pillows.wav]
------------------------------------------------------------
This track looks like CDDA with probability 100%
------------------------------------------------------------
Processing file: [12. Name Someone You Don't Know.wav]
------------------------------------------------------------
This track looks like CDDA with probability 99%
------------------------------------------------------------
Processing file: [13. Killer Bees & Bannanas.wav]
------------------------------------------------------------
This track looks like CDDA with probability 87%
------------------------------------------------------------
Processing file: [14. Variations & Themes In Ab Based On The Barelli Sequences.wav]
------------------------------------------------------------
This track looks like CDDA with probability 87%
------------------------------------------------------------
Final Conclusion:
------------------------------------------------------------
Could not qualify the source of these tracks.
Доп. информация:
 
Album Info
All compositions and arrangements by Vinny Golia
Recorded at Newzone Studio, Los Angeles, California 12/17/2002
Mixed & mastered 2/19,25,26/2003 & 4/29/2003
Wayne Peet: engineer
Music for Like Instruments is an ongoing project which utilizes the various families of woodwinds that are a) either in the same key like Eb saxophones, b) Produce sounds a certain way like the double reeds, c) All belonging to a family of instruments having similar characteristics like the clarinet & flute families.
This ensemble for the Eb saxophones has been performing for over 2 years and this year (2003), the next edition of Music for Like Instruments for multiple flutes will start. There will also be another edition of Like Instrument music for 6 Bb saxophones which will play 'The Unheard King Lear' this year. - Vinny Golia, 5/6/2003
 
Состав
Vinny Golia: stritch (1), contrabass saxophone (tubax) (2,7,14), sopranino saxophone (4,6,7,10,13), baritone saxophone all other tracks
Beth Schenck: alto saxophone (left)
Jason Mears: alto saxophone (center)
Nathan Herrera: alto saxophone (right)
Any questions -> support@pro-jazz.com. По всем вопросам пишите -> support@pro-jazz.com
23:08
127
Нет комментариев. Ваш будет первым!