Вы используете незарегистрированную версию компонента "Вкладки"!

Поиск

(Free Jazz, Contemporary Jazz, Nine Winds) [CD] Less Of Five (Giorgio Occhipinti, Olivia Bignardi, Giuseppe Guarrella, Antonio Moncada) - Acrobati Folli E Innamorati - 2005, FLAC (tracks+.cue), lossless

(Free Jazz, Contemporary Jazz, Nine Winds) [CD] Less Of Five (Giorgio Occhipinti, Olivia Bignardi, Giuseppe Guarrella, Antonio Moncada) - Acrobati Folli E Innamorati - 2005, FLAC (tracks+.cue), lossless
Треклист:
Less Of Five / Acrobati Folli E Innamorati
Жанр: Free Jazz, Contemporary Jazz, Nine Winds
Носитель: CD
Страна-производитель диска: US
Год издания: 2005
Издатель (лейбл): 9 Winds Records
Номер по каталогу: NWCD0244
Страна: Italy
Аудиокодек: FLAC (*.flac)
Тип рипа: tracks+.cue
Битрейт аудио: lossless
Продолжительность: 69:25
Источник (релизер): свой фирменный диск
Наличие сканов в содержимом раздачи:
Треклист:
1. Acrobati Folli 2:48
2. Le Calmar Dans Le Bassin 4:54
3. Cus Cus 3:21
4. Pollution 1 1:46
5. Acrobati Innamorati 4:17
6. Uma Onda De Musica Continua 10:05
7. Four Sounds In The Cage 3:49
8. Pollution 2 1:55
9. Words Shadows 2:55
10. A Frog's Rain 5:45
11. Temoignage De Proximite 10:47
12. Emulation 5:07
13. Baobab 2:27
14. At Dead Of Night 5:35
15. Loop 2:54
 
Лог создания рипа
Exact Audio Copy V1.0 beta 3 from 29. August 2011
EAC extraction logfile from 16. January 2014, 23:42
Less Of Five / Acrobati Folli E Innamorati
Used drive : TSSTcorpCDDVDW SH-222AB Adapter: 1 ID: 0
Read mode : Secure
Utilize accurate stream : Yes
Defeat audio cache : Yes
Make use of C2 pointers : No
Read offset correction : 6
Overread into Lead-In and Lead-Out : No
Fill up missing offset samples with silence : Yes
Delete leading and trailing silent blocks : No
Null samples used in CRC calculations : Yes
Used interface : Installed external ASPI interface
Gap handling : Appended to previous track
Used output format : User Defined Encoder
Selected bitrate : 896 kBit/s
Quality : High
Add ID3 tag : No
Command line compressor : C:\Program Files\Exact Audio Copy\FLAC\FLAC.EXE
Additional command line options : -6 -V -T "ARTIST=%artist%" -T "TITLE=%title%" -T "ALBUM=%albumtitle%" -T "DATE=%year%" -T "TRACKNUMBER=%tracknr%" -T "GENRE=%genre%" -T "COMMENT=%comment%" -T "BAND=%albuminterpret%" -T "COMPOSER=%composer%" %haslyrics%--tag-from-file=LYRICS="%lyricsfile%"%haslyrics% -T "DISCNUMBER=%cdnumber%" -T "TOTALDISCS=%totalcds%" -T "TOTALTRACKS=%numtracks%" %hascover%--picture="%coverfile%"%hascover% %source% -o %dest%
TOC of the extracted CD
Track | Start | Length | Start sector | End sector
---------------------------------------------------------
1 | 0:00.00 | 2:51.65 | 0 | 12889
2 | 2:51.65 | 4:57.69 | 12890 | 35233
3 | 7:49.59 | 3:25.25 | 35234 | 50633
4 | 11:15.09 | 1:49.35 | 50634 | 58843
5 | 13:04.44 | 4:21.15 | 58844 | 78433
6 | 17:25.59 | 10:09.57 | 78434 | 124165
7 | 27:35.41 | 3:53.34 | 124166 | 141674
8 | 31:29.00 | 1:59.00 | 141675 | 150599
9 | 33:28.00 | 2:59.55 | 150600 | 164079
10 | 36:27.55 | 5:49.64 | 164080 | 190318
11 | 42:17.44 | 10:50.28 | 190319 | 239096
12 | 53:07.72 | 5:11.15 | 239097 | 262436
13 | 58:19.12 | 2:31.22 | 262437 | 273783
14 | 60:50.34 | 5:40.06 | 273784 | 299289
15 | 66:30.40 | 2:55.26 | 299290 | 312440
Track 1
Filename D:\zzz\01 - Acrobati Folli.wav
Pre-gap length 0:00:02.00
Peak level 96.5 %
Extraction speed 2.6 X
Track quality 100.0 %
Test CRC D2703DC4
Copy CRC D2703DC4
Accurately ripped (confidence 1) [9DFA3604] (AR v1)
Copy OK
Track 2
Filename D:\zzz\02 - Le Calmar Dans Le Bassin.wav
Pre-gap length 0:00:02.00
Peak level 96.5 %
Extraction speed 2.8 X
Track quality 100.0 %
Test CRC 5A305E63
Copy CRC 5A305E63
Accurately ripped (confidence 1) [AB715253] (AR v1)
Copy OK
Track 3
Filename D:\zzz\03 - Cus Cus.wav
Pre-gap length 0:00:02.01
Peak level 96.5 %
Extraction speed 2.7 X
Track quality 100.0 %
Test CRC 32F930C5
Copy CRC 32F930C5
Accurately ripped (confidence 1) [92321A25] (AR v1)
Copy OK
Track 4
Filename D:\zzz\04 - Pollution 1.wav
Pre-gap length 0:00:02.00
Peak level 96.5 %
Extraction speed 2.3 X
Track quality 100.0 %
Test CRC 5F4DA38D
Copy CRC 5F4DA38D
Accurately ripped (confidence 1) [DEF97293] (AR v1)
Copy OK
Track 5
Filename D:\zzz\05 - Acrobati Innamorati.wav
Pre-gap length 0:00:02.01
Peak level 96.5 %
Extraction speed 2.7 X
Track quality 100.0 %
Test CRC C51DEC71
Copy CRC C51DEC71
Accurately ripped (confidence 1) [AA8F3FC7] (AR v1)
Copy OK
Track 6
Filename D:\zzz\06 - Uma Onda De Musica Continua.wav
Pre-gap length 0:00:02.00
Peak level 96.5 %
Extraction speed 3.0 X
Track quality 100.0 %
Test CRC B15714FF
Copy CRC B15714FF
Accurately ripped (confidence 1) [637C93E2] (AR v1)
Copy OK
Track 7
Filename D:\zzz\07 - Four Sounds In The Cage.wav
Pre-gap length 0:00:02.01
Peak level 96.5 %
Extraction speed 2.7 X
Track quality 100.0 %
Test CRC 06108914
Copy CRC 06108914
Accurately ripped (confidence 1) [8A7A2517] (AR v1)
Copy OK
Track 8
Filename D:\zzz\08 - Pollution 2.wav
Pre-gap length 0:00:02.01
Peak level 96.3 %
Extraction speed 2.4 X
Track quality 100.0 %
Test CRC 6A533D43
Copy CRC 6A533D43
Accurately ripped (confidence 1) [F1283934] (AR v1)
Copy OK
Track 9
Filename D:\zzz\09 - Words Shadows.wav
Pre-gap length 0:00:02.01
Peak level 96.5 %
Extraction speed 2.6 X
Track quality 100.0 %
Test CRC 1F60FB14
Copy CRC 1F60FB14
Accurately ripped (confidence 1) [D1146F0D] (AR v1)
Copy OK
Track 10
Filename D:\zzz\10 - A Frog's Rain.wav
Pre-gap length 0:00:02.01
Peak level 96.5 %
Extraction speed 2.8 X
Track quality 100.0 %
Test CRC 31C8E0B6
Copy CRC 31C8E0B6
Accurately ripped (confidence 1) [0F76C5D1] (AR v1)
Copy OK
Track 11
Filename D:\zzz\11 - Temoignage De Proximite.wav
Pre-gap length 0:00:02.00
Peak level 96.8 %
Extraction speed 2.8 X
Track quality 99.9 %
Test CRC 09A8517A
Copy CRC 09A8517A
Accurately ripped (confidence 1) [3DA83A57] (AR v1)
Copy OK
Track 12
Filename D:\zzz\12 - Emulation.wav
Pre-gap length 0:00:02.01
Peak level 97.9 %
Extraction speed 2.8 X
Track quality 100.0 %
Test CRC 563D7F8A
Copy CRC 563D7F8A
Accurately ripped (confidence 1) [A75CA805] (AR v1)
Copy OK
Track 13
Filename D:\zzz\13 - Baobab.wav
Pre-gap length 0:00:02.01
Peak level 96.5 %
Extraction speed 2.5 X
Track quality 100.0 %
Test CRC 59B0F466
Copy CRC 59B0F466
Accurately ripped (confidence 1) [DF1E9A77] (AR v1)
Copy OK
Track 14
Filename D:\zzz\14 - At Dead Of Night.wav
Pre-gap length 0:00:02.00
Peak level 96.5 %
Extraction speed 2.8 X
Track quality 100.0 %
Test CRC 4437B2F5
Copy CRC 4437B2F5
Accurately ripped (confidence 1) [08E30449] (AR v1)
Copy OK
Track 15
Filename D:\zzz\15 - Loop.wav
Pre-gap length 0:00:02.01
Peak level 96.5 %
Extraction speed 2.5 X
Track quality 100.0 %
Test CRC F714CDC2
Copy CRC F714CDC2
Accurately ripped (confidence 1) [5A4A2F71] (AR v1)
Copy OK
All tracks accurately ripped
No errors occurred
End of status report
==== Log checksum E158CC3A613A790BADCEF8E514738BC31D8666DB97E4E9EDDA30D5CC84EA1A64 ====
 
Содержание индексной карты (.CUE)
REM GENRE "Free Jazz"
REM DATE 2005
REM DISCID E310450F
REM COMMENT "ExactAudioCopy v1.0b3"
PERFORMER "Less Of Five"
TITLE "Acrobati Folli E Innamorati"
FILE "01 - Acrobati Folli.wav" WAVE
TRACK 01 AUDIO
TITLE "Acrobati Folli"
PERFORMER "Less Of Five"
INDEX 01 00:00:00
TRACK 02 AUDIO
TITLE "Le Calmar Dans Le Bassin"
PERFORMER "Less Of Five"
INDEX 00 02:49:65
FILE "02 - Le Calmar Dans Le Bassin.wav" WAVE
INDEX 01 00:00:00
TRACK 03 AUDIO
TITLE "Cus Cus"
PERFORMER "Less Of Five"
INDEX 00 04:55:68
FILE "03 - Cus Cus.wav" WAVE
INDEX 01 00:00:00
TRACK 04 AUDIO
TITLE "Pollution 1"
PERFORMER "Less Of Five"
INDEX 00 03:23:25
FILE "04 - Pollution 1.wav" WAVE
INDEX 01 00:00:00
TRACK 05 AUDIO
TITLE "Acrobati Innamorati"
PERFORMER "Less Of Five"
INDEX 00 01:47:34
FILE "05 - Acrobati Innamorati.wav" WAVE
INDEX 01 00:00:00
TRACK 06 AUDIO
TITLE "Uma Onda De Musica Continua"
PERFORMER "Less Of Five"
INDEX 00 04:19:15
FILE "06 - Uma Onda De Musica Continua.wav" WAVE
INDEX 01 00:00:00
TRACK 07 AUDIO
TITLE "Four Sounds In The Cage"
PERFORMER "Less Of Five"
INDEX 00 10:07:56
FILE "07 - Four Sounds In The Cage.wav" WAVE
INDEX 01 00:00:00
TRACK 08 AUDIO
TITLE "Pollution 2"
PERFORMER "Less Of Five"
INDEX 00 03:51:33
FILE "08 - Pollution 2.wav" WAVE
INDEX 01 00:00:00
TRACK 09 AUDIO
TITLE "Words Shadows"
PERFORMER "Less Of Five"
INDEX 00 01:56:74
FILE "09 - Words Shadows.wav" WAVE
INDEX 01 00:00:00
TRACK 10 AUDIO
TITLE "A Frog's Rain"
PERFORMER "Less Of Five"
INDEX 00 02:57:54
FILE "10 - A Frog's Rain.wav" WAVE
INDEX 01 00:00:00
TRACK 11 AUDIO
TITLE "Temoignage De Proximite"
PERFORMER "Less Of Five"
INDEX 00 05:47:64
FILE "11 - Temoignage De Proximite.wav" WAVE
INDEX 01 00:00:00
TRACK 12 AUDIO
TITLE "Emulation"
PERFORMER "Less Of Five"
INDEX 00 10:48:27
FILE "12 - Emulation.wav" WAVE
INDEX 01 00:00:00
TRACK 13 AUDIO
TITLE "Baobab"
PERFORMER "Less Of Five"
INDEX 00 05:09:14
FILE "13 - Baobab.wav" WAVE
INDEX 01 00:00:00
TRACK 14 AUDIO
TITLE "At Dead Of Night"
PERFORMER "Less Of Five"
INDEX 00 02:29:22
FILE "14 - At Dead Of Night.wav" WAVE
INDEX 01 00:00:00
TRACK 15 AUDIO
TITLE "Loop"
PERFORMER "Less Of Five"
INDEX 00 05:38:05
FILE "15 - Loop.wav" WAVE
INDEX 01 00:00:00
 
Лог проверки качества
d:\>d:\aucdtect -d/-m0 d:\zzz\*.wav
auCDtect: CD records authenticity detector, version 0.8.2
Copyright (c) 2004 Oleg Berngardt. All rights reserved.
Copyright (c) 2004 Alexander Djourik. All rights reserved.
------------------------------------------------------------
Processing file: [01. Acrobati Folli.wav]
------------------------------------------------------------
This track looks like CDDA with probability 100%
------------------------------------------------------------
Processing file: [02. Le Calmar Dans Le Bassin.wav]
------------------------------------------------------------
This track looks like CDDA with probability 100%
------------------------------------------------------------
Processing file: [03. Cus Cus.wav]
------------------------------------------------------------
This track looks like CDDA with probability 100%
------------------------------------------------------------
Processing file: [04. Pollution 1.wav]
------------------------------------------------------------
This track looks like CDDA with probability 100%
------------------------------------------------------------
Processing file: [05. Acrobati Innamorati.wav]
------------------------------------------------------------
This track looks like CDDA with probability 100%
------------------------------------------------------------
Processing file: [06. Uma Onda De Musica Continua.wav]
------------------------------------------------------------
This track looks like CDDA with probability 100%
------------------------------------------------------------
Processing file: [07. Four Sounds In The Cage.wav]
------------------------------------------------------------
This track looks like CDDA with probability 100%
------------------------------------------------------------
Processing file: [08. Pollution 2.wav]
------------------------------------------------------------
This track looks like CDDA with probability 100%
------------------------------------------------------------
Processing file: [09. Words Shadows.wav]
------------------------------------------------------------
This track looks like CDDA with probability 100%
------------------------------------------------------------
Processing file: [10. A Frog's Rain.wav]
------------------------------------------------------------
This track looks like CDDA with probability 100%
------------------------------------------------------------
Processing file: [11. Temoignage De Proximite.wav]
------------------------------------------------------------
This track looks like CDDA with probability 100%
------------------------------------------------------------
Processing file: [12. Emulation.wav]
------------------------------------------------------------
This track looks like CDDA with probability 100%
------------------------------------------------------------
Processing file: [13. Baobab.wav]
------------------------------------------------------------
This track looks like CDDA with probability 100%
------------------------------------------------------------
Processing file: [14. At Dead Of Night.wav]
------------------------------------------------------------
This track looks like CDDA with probability 94%
------------------------------------------------------------
Processing file: [15. Loop.wav]
------------------------------------------------------------
This track looks like CDDA with probability 99%
------------------------------------------------------------
Final Conclusion:
------------------------------------------------------------
These tracks looks like CDDA with probability 100%
Доп. информация:
 
Album Info & Jazzreview.com Review
(G. Occhipinti) - 2,6,7,9,11,12
(O. Bignardi) - 3,4,8,10
(G. Guarrella) - 1,5,13
(A. Moncada) - 14,15
6. for Marilyn Crispell
9. for my friend and teacher Joelle Leandre
11. for my great friend Jos Demol
Recording and mixing: Sonoria Studio Recording, Scordia (Catania), Vincenzo Cavalli, June 2002
Produced by: Vinny Golia
Design: ewt
This recording, produced and released by Los Angeles avant gardist Vinny Golia, features an interesting avant garde jazz quartet from Italy called Less of Five. The group is striking and imaginative, using their instruments in unorthodox ways to produce a wide range of sounds. The opening "Acrobati folli" sets an interesting tone for the rest of the record, seemingly picking up mid sentence with jarring piano from Giorgio Occhipinti and some throaty sax from Olivia Bignardi. "Le calmar dans le bassin" follows that with the first appearance of the prepared piano adding some harp like effects. "Cus cus" gives drummer Antonio Moncada and bassist Giuseppe Guarrella free play on their instruments, with Occhipinti adding some nice percussion effects and Bignardi keeping fairly low-key.
Most of the album's fifteen tracks are fairly brief; two tracks, "Uma onda de musica continua" and "Temoignage de poximitie" are sprawling ten minute free explorations, while the rest last only a few minutes--long enough to present and develop an interesting idea or two without overstaying their welcome. Less of Five plays challenging and dense jazz. Olivia Bignardi recalls Albert Ayler a bit in her husky tone, while the pensive moodiness of the tunes and their cascades of piano bear a passing resemblance to recent Wayne Shorter recordings. Interesting stuff, well worth a listen.
 
Состав
Giorgio Occhipinti: piano, prepared piano, percussion
Olivia Bignardi: alto sax, soprano clarinet, nacchere
Giuseppe Guarrella: double bass, prepared double bass
Antonio Moncada: drums
По всем вопросам пишите личное сообщение пользователю M0p94ok.
23:07
149
Нет комментариев. Ваш будет первым!