Вы используете незарегистрированную версию компонента "Вкладки"!

Поиск

(Free Jazz, Avant-Garde Jazz) [CD] Ornette Coleman - Free Jazz 1960 (with Don Cherry, Charley Haden, Ed Blackwell, Eric Dolphy and others [GOJ53214] - 1996, APE (image+.cue), lossless

(Free Jazz, Avant-Garde Jazz) [CD] Ornette Coleman - Free Jazz 1960 (with Don Cherry, Charley Haden, Ed Blackwell, Eric Dolphy and others [GOJ53214] - 1996, APE (image+.cue), lossless
Треклист:
Ornette Coleman / Free Jazz 1960
Жанр: Free Jazz, Avant-Garde Jazz
Носитель: CD
Страна-производитель диска: Germany
Год издания: 1996
Издатель (лейбл): Giants of Jazz
Номер по каталогу: 53214
Страна: US
Аудиокодек: APE (*.ape)
Тип рипа: image+.cue
Битрейт аудио: lossless
Продолжительность: 76'29
Источник (релизер): Own rip
Наличие сканов в содержимом раздачи: да
Треклист:
1. Little Symphony
2. Rise and Shine
3. Kaleidoscope
4. Revolving Doors
5. The Legend of Bebop
6. Embraceable you
7. Folk Tale
8. Free Jazz
 
Лог создания рипа
Exact Audio Copy V1.0 beta 3 from 29. August 2011
EAC extraction logfile from 20. February 2013, 20:43
Ornette Coleman / Free Jazz
Used drive : HL-DT-STDVD-RAM GSA-H55N Adapter: 0 ID: 0
Read mode : Secure
Utilize accurate stream : Yes
Defeat audio cache : Yes
Make use of C2 pointers : No
Read offset correction : 102
Overread into Lead-In and Lead-Out : No
Fill up missing offset samples with silence : Yes
Delete leading and trailing silent blocks : No
Null samples used in CRC calculations : Yes
Used interface : Native Win32 interface for Win NT & 2000
Used output format : Monkey's Audio Lossless Encoder
Selected bitrate : Fast Lossless Compression
Quality : High
Add ID3 tag : Yes
Command line compressor : C:\Program Files\Exact Audio Copy\Monkeys Audio\MAC.exe
Additional command line options : %dest% -t "Artist=%artist%" -t "Title=%title%" -t "Album=%albumtitle%" -t "Year=%year%" -t "Track=%tracknr%" -t "Genre=%genre%" mac.exe %source% %dest% -c3000 -v
TOC of the extracted CD
Track | Start | Length | Start sector | End sector
---------------------------------------------------------
1 | 0:00.33 | 5:17.37 | 33 | 23844
2 | 5:17.70 | 6:14.13 | 23845 | 51907
3 | 11:32.08 | 6:37.25 | 51908 | 81707
4 | 18:09.33 | 4:28.62 | 81708 | 101869
5 | 22:38.20 | 7:18.50 | 101870 | 134769
6 | 29:56.70 | 4:58.38 | 134770 | 157157
7 | 34:55.33 | 4:50.37 | 157158 | 178944
8 | 39:45.70 | 37:08.38 | 178945 | 346082
Range status and errors
Selected range
Filename E:\Muziek\Ornette Coleman - Free Jazz.wav
Peak level 99.2 %
Extraction speed 3.0 X
Range quality 99.9 %
Copy CRC EAB815F5
Copy OK
No errors occurred
AccurateRip summary
Track 1 accurately ripped (confidence 3) [33B8B92C] (AR v1)
Track 2 accurately ripped (confidence 3) [EAD652A3] (AR v1)
Track 3 accurately ripped (confidence 3) [F536E88C] (AR v1)
Track 4 accurately ripped (confidence 3) [E6807A2A] (AR v1)
Track 5 accurately ripped (confidence 3) [38BC631D] (AR v1)
Track 6 accurately ripped (confidence 3) [429470C9] (AR v1)
Track 7 accurately ripped (confidence 3) [C203D640] (AR v1)
Track 8 accurately ripped (confidence 3) [5A11D935] (AR v1)
All tracks accurately ripped
End of status report
---- CUETools DB Plugin V2.1.3
[CTDB TOCID: aw_WcFY7tfwmiV0xP_dPhawgFE4-] disk not present in database, Submit result: discs with pregaps not supported in this protocol version
==== Log checksum 07B466319162AFD3F8C3092F7587FDBBCA68CF3DFD3BB0F26C5FF530016F5968 ====
 
Содержание индексной карты (.CUE)
REM GENRE Jazz
REM DATE 1960
REM DISCID 76120608
REM COMMENT "ExactAudioCopy v1.0b3"
CATALOG 0000000000000
PERFORMER "Ornette Coleman"
TITLE "Free Jazz"
FILE "Ornette Coleman - Free Jazz.ape" WAVE
TRACK 01 AUDIO
TITLE "Little Symphony"
PERFORMER "Ornette Coleman"
INDEX 00 00:00:00
INDEX 01 00:00:33
TRACK 02 AUDIO
TITLE "Rise and Shine"
PERFORMER "Ornette Coleman"
INDEX 01 05:17:70
TRACK 03 AUDIO
TITLE "Kaleidoscope"
PERFORMER "Ornette Coleman"
INDEX 01 11:32:08
TRACK 04 AUDIO
TITLE "Revolving Doors"
PERFORMER "Ornette Coleman"
INDEX 01 18:09:33
TRACK 05 AUDIO
TITLE "The Legend of Bebop"
PERFORMER "Ornette Coleman"
INDEX 01 22:38:20
TRACK 06 AUDIO
TITLE "Embraceable you"
PERFORMER "Ornette Coleman"
INDEX 01 29:56:70
TRACK 07 AUDIO
TITLE "Folk Tale"
PERFORMER "Ornette Coleman"
INDEX 01 34:55:33
TRACK 08 AUDIO
TITLE "Free Jazz"
PERFORMER "Ornette Coleman"
INDEX 01 39:45:70
 
Об исполнителе (группе)
По всем вопросам пишите личное сообщение пользователю M0p94ok.
23:09
170
Нет комментариев. Ваш будет первым!