Вы используете незарегистрированную версию компонента "Вкладки"!

Поиск

(Avant-Garde Jazz, Modern Composition, Nine Winds) [CD] Vinny Golia - Music For Like Instruments: The Bb Saxophones - 2007, FLAC (tracks+.cue), lossless

(Avant-Garde Jazz, Modern Composition, Nine Winds) [CD] Vinny Golia - Music For Like Instruments: The Bb Saxophones - 2007, FLAC (tracks+.cue), lossless
Треклист:
Vinny Golia / Music For Like Instruments: The Bb Saxophones
Жанр: Avant-Garde Jazz, Modern Composition, Nine Winds
Носитель: CD
Страна-производитель диска: US
Год издания: 2007
Издатель (лейбл): 9 Winds Records
Номер по каталогу: NWCD0289
Страна: US
Аудиокодек: FLAC (*.flac)
Тип рипа: tracks+.cue
Битрейт аудио: lossless
Продолжительность: 68:16
Источник (релизер): свой фирменный диск
Наличие сканов в содержимом раздачи:
Треклист:
1. Aladj 2:49
2. Introduction To 4th Year Geometry 1:43
3. Dollar Sign Woman 4:50
4. The Final Straw, A Concern For Timings.. 5:58
5. For All Concerned 4:08
6. The Harder Blues 6:24
7. Mr Charles Watches All... 5:31
8. New Improved Mr Fennell (He Has A Thin Mustache And Parts His Hair On The Other Side)... 3:52
9. Pierre Lynstrom 5:04
10. The Princess Ashunga Wears Purple Everyday (For Chris McGregor) 4:37
11. Spillage, The Imagery Of The Cup 6:45
12. Ventriloquist & Dummy... 4:27
13. A Visit From The Mole 2:50
14. The Frozen North, Or Why We Like Squid 3:35
15. A Visit To The 440 Club... 5:04
 
Лог создания рипа
Exact Audio Copy V1.0 beta 3 from 29. August 2011
EAC extraction logfile from 19. January 2014, 21:39
Vinny Golia / Music For Like Instruments - The Bb Saxophones
Used drive : PIONEER DVD-RW DVR-115D Adapter: 0 ID: 0
Read mode : Secure
Utilize accurate stream : Yes
Defeat audio cache : Yes
Make use of C2 pointers : No
Read offset correction : 48
Overread into Lead-In and Lead-Out : No
Fill up missing offset samples with silence : Yes
Delete leading and trailing silent blocks : No
Null samples used in CRC calculations : Yes
Used interface : Installed external ASPI interface
Gap handling : Appended to previous track
Used output format : User Defined Encoder
Selected bitrate : 896 kBit/s
Quality : High
Add ID3 tag : No
Command line compressor : C:\Program Files\Exact Audio Copy\FLAC\FLAC.EXE
Additional command line options : -6 -V -T "ARTIST=%artist%" -T "TITLE=%title%" -T "ALBUM=%albumtitle%" -T "DATE=%year%" -T "TRACKNUMBER=%tracknr%" -T "GENRE=%genre%" -T "COMMENT=%comment%" -T "BAND=%albuminterpret%" -T "COMPOSER=%composer%" %haslyrics%--tag-from-file=LYRICS="%lyricsfile%"%haslyrics% -T "DISCNUMBER=%cdnumber%" -T "TOTALDISCS=%totalcds%" -T "TOTALTRACKS=%numtracks%" %hascover%--picture="%coverfile%"%hascover% %source% -o %dest%
TOC of the extracted CD
Track | Start | Length | Start sector | End sector
---------------------------------------------------------
1 | 0:00.00 | 2:50.39 | 0 | 12788
2 | 2:50.39 | 1:45.33 | 12789 | 20696
3 | 4:35.72 | 4:53.23 | 20697 | 42694
4 | 9:29.20 | 6:01.29 | 42695 | 69798
5 | 15:30.49 | 4:11.09 | 69799 | 88632
6 | 19:41.58 | 6:27.05 | 88633 | 117662
7 | 26:08.63 | 5:34.16 | 117663 | 142728
8 | 31:43.04 | 3:54.46 | 142729 | 160324
9 | 35:37.50 | 5:06.64 | 160325 | 183338
10 | 40:44.39 | 4:39.39 | 183339 | 204302
11 | 45:24.03 | 6:48.02 | 204303 | 234904
12 | 52:12.05 | 4:29.42 | 234905 | 255121
13 | 56:41.47 | 2:53.04 | 255122 | 268100
14 | 59:34.51 | 3:37.66 | 268101 | 284441
15 | 63:12.42 | 5:03.67 | 284442 | 307233
Track 1
Filename D:\zzz\01 - Aladj.wav
Pre-gap length 0:00:02.00
Peak level 96.6 %
Extraction speed 4.0 X
Track quality 100.0 %
Test CRC 22915873
Copy CRC 22915873
Track not present in AccurateRip database
Copy OK
Track 2
Filename D:\zzz\02 - Introduction To 4th Year Geometry.wav
Pre-gap length 0:00:03.00
Peak level 96.6 %
Extraction speed 3.8 X
Track quality 100.0 %
Test CRC 33397EBF
Copy CRC 33397EBF
Track not present in AccurateRip database
Copy OK
Track 3
Filename D:\zzz\03 - Dollar Sign Woman.wav
Pre-gap length 0:00:03.00
Peak level 96.6 %
Extraction speed 4.9 X
Track quality 100.0 %
Test CRC 7503109E
Copy CRC 7503109E
Track not present in AccurateRip database
Copy OK
Track 4
Filename D:\zzz\04 - The Final Straw, A Concern For Timings...wav
Pre-gap length 0:00:03.00
Peak level 96.6 %
Extraction speed 5.5 X
Track quality 100.0 %
Test CRC 4847926F
Copy CRC 4847926F
Track not present in AccurateRip database
Copy OK
Track 5
Filename D:\zzz\05 - For All Concerned.wav
Pre-gap length 0:00:03.00
Peak level 96.6 %
Extraction speed 5.8 X
Track quality 100.0 %
Test CRC 48DF84C3
Copy CRC 48DF84C3
Track not present in AccurateRip database
Copy OK
Track 6
Filename D:\zzz\06 - The Harder Blues.wav
Pre-gap length 0:00:03.00
Peak level 96.6 %
Extraction speed 5.9 X
Track quality 99.9 %
Test CRC 540B276D
Copy CRC 540B276D
Track not present in AccurateRip database
Copy OK
Track 7
Filename D:\zzz\07 - Mr. Charles Watches All....wav
Pre-gap length 0:00:03.00
Peak level 96.6 %
Extraction speed 6.7 X
Track quality 100.0 %
Test CRC 5B08FC01
Copy CRC 5B08FC01
Track not present in AccurateRip database
Copy OK
Track 8
Filename D:\zzz\08 - New Improved Mr. Fennell (He Has A Thin Mustache And Parts His Hair On The Other Side)....wav
Pre-gap length 0:00:03.00
Peak level 96.6 %
Extraction speed 6.8 X
Track quality 100.0 %
Test CRC 8A50168B
Copy CRC 8A50168B
Track not present in AccurateRip database
Copy OK
Track 9
Filename D:\zzz\09 - Pierre Lynstrom.wav
Pre-gap length 0:00:03.00
Peak level 96.6 %
Extraction speed 7.2 X
Track quality 100.0 %
Test CRC 4CE1C37F
Copy CRC 4CE1C37F
Track not present in AccurateRip database
Copy OK
Track 10
Filename D:\zzz\10 - The Princess Ashunga Wears Purple Everyday (For Chris McGregor).wav
Pre-gap length 0:00:03.00
Peak level 96.6 %
Extraction speed 6.7 X
Track quality 99.9 %
Test CRC 32789418
Copy CRC 32789418
Track not present in AccurateRip database
Copy OK
Track 11
Filename D:\zzz\11 - Spillage, The Imagery Of The Cup.wav
Pre-gap length 0:00:03.00
Peak level 96.6 %
Extraction speed 7.5 X
Track quality 99.9 %
Test CRC A1600E2A
Copy CRC A1600E2A
Track not present in AccurateRip database
Copy OK
Track 12
Filename D:\zzz\12 - Ventriloquist & Dummy....wav
Pre-gap length 0:00:03.00
Peak level 96.6 %
Extraction speed 7.2 X
Track quality 99.9 %
Test CRC BF217B93
Copy CRC BF217B93
Track not present in AccurateRip database
Copy OK
Track 13
Filename D:\zzz\13 - A Visit From The Mole.wav
Pre-gap length 0:00:03.00
Peak level 96.6 %
Extraction speed 7.7 X
Track quality 100.0 %
Test CRC E3F6AD81
Copy CRC E3F6AD81
Track not present in AccurateRip database
Copy OK
Track 14
Filename D:\zzz\14 - The Frozen North, Or Why We Like Squid.wav
Pre-gap length 0:00:03.00
Peak level 96.6 %
Extraction speed 8.2 X
Track quality 100.0 %
Test CRC 1E164902
Copy CRC 1E164902
Track not present in AccurateRip database
Copy OK
Track 15
Filename D:\zzz\15 - A Visit To The 440 Club....wav
Pre-gap length 0:00:03.00
Peak level 96.6 %
Extraction speed 8.7 X
Track quality 100.0 %
Test CRC 4851C6CC
Copy CRC 4851C6CC
Track not present in AccurateRip database
Copy OK
None of the tracks are present in the AccurateRip database
No errors occurred
End of status report
==== Log checksum ED42A182ADE9CF9F25EA09F6B3596135A0F0C2369376A630A8594B752F4B12D7 ====
 
Содержание индексной карты (.CUE)
REM GENRE "Avant-Garde Jazz"
REM DATE 2007
REM DISCID D110000F
REM COMMENT "ExactAudioCopy v1.0b3"
PERFORMER "Vinny Golia"
TITLE "Music For Like Instruments - The Bb Saxophones"
FILE "01 - Aladj.wav" WAVE
TRACK 01 AUDIO
TITLE "Aladj"
PERFORMER "Vinny Golia"
INDEX 01 00:00:00
TRACK 02 AUDIO
TITLE "Introduction To 4th Year Geometry"
PERFORMER "Vinny Golia"
INDEX 00 02:47:39
FILE "02 - Introduction To 4th Year Geometry.wav" WAVE
INDEX 01 00:00:00
TRACK 03 AUDIO
TITLE "Dollar Sign Woman"
PERFORMER "Vinny Golia"
INDEX 00 01:42:33
FILE "03 - Dollar Sign Woman.wav" WAVE
INDEX 01 00:00:00
TRACK 04 AUDIO
TITLE "The Final Straw, A Concern For Timings.."
PERFORMER "Vinny Golia"
INDEX 00 04:50:23
FILE "04 - The Final Straw, A Concern For Timings...wav" WAVE
INDEX 01 00:00:00
TRACK 05 AUDIO
TITLE "For All Concerned"
PERFORMER "Vinny Golia"
INDEX 00 05:58:29
FILE "05 - For All Concerned.wav" WAVE
INDEX 01 00:00:00
TRACK 06 AUDIO
TITLE "The Harder Blues"
PERFORMER "Vinny Golia"
INDEX 00 04:08:09
FILE "06 - The Harder Blues.wav" WAVE
INDEX 01 00:00:00
TRACK 07 AUDIO
TITLE "Mr. Charles Watches All..."
PERFORMER "Vinny Golia"
INDEX 00 06:24:05
FILE "07 - Mr. Charles Watches All....wav" WAVE
INDEX 01 00:00:00
TRACK 08 AUDIO
TITLE "New Improved Mr. Fennell (He Has A Thin Mustache And Parts His Hair On The Ot..."
PERFORMER "Vinny Golia"
INDEX 00 05:31:16
FILE "08 - New Improved Mr. Fennell (He Has A Thin Mustache And Parts His Hair On The Other Side)....wav" WAVE
INDEX 01 00:00:00
TRACK 09 AUDIO
TITLE "Pierre Lynstrom"
PERFORMER "Vinny Golia"
INDEX 00 03:51:46
FILE "09 - Pierre Lynstrom.wav" WAVE
INDEX 01 00:00:00
TRACK 10 AUDIO
TITLE "The Princess Ashunga Wears Purple Everyday (For Chris McGregor)"
PERFORMER "Vinny Golia"
INDEX 00 05:03:64
FILE "10 - The Princess Ashunga Wears Purple Everyday (For Chris McGregor).wav" WAVE
INDEX 01 00:00:00
TRACK 11 AUDIO
TITLE "Spillage, The Imagery Of The Cup"
PERFORMER "Vinny Golia"
INDEX 00 04:36:39
FILE "11 - Spillage, The Imagery Of The Cup.wav" WAVE
INDEX 01 00:00:00
TRACK 12 AUDIO
TITLE "Ventriloquist & Dummy..."
PERFORMER "Vinny Golia"
INDEX 00 06:45:02
FILE "12 - Ventriloquist & Dummy....wav" WAVE
INDEX 01 00:00:00
TRACK 13 AUDIO
TITLE "A Visit From The Mole"
PERFORMER "Vinny Golia"
INDEX 00 04:26:42
FILE "13 - A Visit From The Mole.wav" WAVE
INDEX 01 00:00:00
TRACK 14 AUDIO
TITLE "The Frozen North, Or Why We Like Squid"
PERFORMER "Vinny Golia"
INDEX 00 02:50:04
FILE "14 - The Frozen North, Or Why We Like Squid.wav" WAVE
INDEX 01 00:00:00
TRACK 15 AUDIO
TITLE "A Visit To The 440 Club..."
PERFORMER "Vinny Golia"
INDEX 00 03:34:66
FILE "15 - A Visit To The 440 Club....wav" WAVE
INDEX 01 00:00:00
 
Лог проверки качества
d:\>d:\aucdtect -d/-m0 d:\zzz\*.wav
auCDtect: CD records authenticity detector, version 0.8.2
Copyright (c) 2004 Oleg Berngardt. All rights reserved.
Copyright (c) 2004 Alexander Djourik. All rights reserved.
------------------------------------------------------------
Processing file: [01. Aladj.wav]
------------------------------------------------------------
This track looks like MPEG with probability 90%
------------------------------------------------------------
Processing file: [02. Introduction To 4th Year Geometry.wav]
------------------------------------------------------------
This track looks like CDDA with probability 100%
------------------------------------------------------------
Processing file: [03. Dollar Sign Woman.wav]
------------------------------------------------------------
This track looks like CDDA with probability 100%
------------------------------------------------------------
Processing file: [04. The Final Straw, A Concern For Timings...wav]
------------------------------------------------------------
This track looks like CDDA with probability 100%
------------------------------------------------------------
Processing file: [05. For All Concerned.wav]
------------------------------------------------------------
This track looks like CDDA with probability 100%
------------------------------------------------------------
Processing file: [06. The Harder Blues.wav]
------------------------------------------------------------
This track looks like CDDA with probability 99%
------------------------------------------------------------
Processing file: [07. Mr. Charles Watches All....wav]
------------------------------------------------------------
This track looks like CDDA with probability 100%
------------------------------------------------------------
Processing file: [08. New Improved Mr. Fennell (He Has A Thin Mustache And Parts His Hair On The Other Side)....wav]
------------------------------------------------------------
This track looks like CDDA with probability 100%
------------------------------------------------------------
Processing file: [09. Pierre Lynstrom.wav]
------------------------------------------------------------
This track looks like CDDA with probability 100%
------------------------------------------------------------
Processing file: [10. The Princess Ashunga Wears Purple Everyday (For Chris McGregor).wav]
------------------------------------------------------------
This track looks like CDDA with probability 100%
------------------------------------------------------------
Processing file: [11. Spillage, The Imagery Of The Cup.wav]
------------------------------------------------------------
This track looks like CDDA with probability 85%
------------------------------------------------------------
Processing file: [12. Ventriloquist & Dummy....wav]
------------------------------------------------------------
This track looks like CDDA with probability 100%
------------------------------------------------------------
Processing file: [13. A Visit From The Mole.wav]
------------------------------------------------------------
This track looks like CDDA with probability 100%
------------------------------------------------------------
Processing file: [14. The Frozen North, Or Why We Like Squid.wav]
------------------------------------------------------------
This track looks like CDDA with probability 100%
------------------------------------------------------------
Processing file: [15. A Visit To The 440 Club....wav]
------------------------------------------------------------
This track looks like CDDA with probability 99%
------------------------------------------------------------
Final Conclusion:
------------------------------------------------------------
These tracks looks like CDDA with probability 100%
Доп. информация:
 
Album Info
Recorded at Newzone Studio Los Angeles California
Wayne Peet engineer
Recorded 9/16/2006
Mixed 11/8/2006
Kio Griffith cover photo + design
Once again special thanks go to Wayne Peet for his superb engineering skills, and for his conducting on a few hairy passages.
Vinny Golia's Soprillo and Bass Saxophones are made by the brilliant instrument inventor and innovator Benedickt Eppelsheim
 
Состав
Matt Otto: tenor saxophone
Eric Barber: soprano & tenor saxophones
Vinny Golia: soprillo, curved & straight soprano, tenor & bass saxophones
Andrew Pask: soprano, tenor & bass saxophones
Bill Plake: soprano & tenor saxophones
Any questions -> support@pro-jazz.com. По всем вопросам пишите -> support@pro-jazz.com
23:23
129
Нет комментариев. Ваш будет первым!