Вы используете незарегистрированную версию компонента "Вкладки"!

Поиск

(Avant-Garde Jazz, Modern Composition, Nine Winds) [CD] Vinny Golia - Music For Like Instruments: The Clarinets - 2005, FLAC (tracks+.cue), lossless

(Avant-Garde Jazz, Modern Composition, Nine Winds) [CD] Vinny Golia - Music For Like Instruments: The Clarinets - 2005, FLAC (tracks+.cue), lossless
Треклист:
Vinny Golia / Music For Like Instruments: The Clarinets
Жанр: Avant-Garde Jazz, Modern Composition, Nine Winds
Носитель: CD
Страна-производитель диска: US
Год издания: 2005
Издатель (лейбл): 9 Winds Records
Номер по каталогу: NWCD0279
Страна: US
Аудиокодек: FLAC (*.flac)
Тип рипа: tracks+.cue
Битрейт аудио: lossless
Продолжительность: 73:05
Источник (релизер): свой фирменный диск
Наличие сканов в содержимом раздачи:
Треклист:
1. Clown Car Syndrome 3:56
2. The Fleming Valve 1:11
3. Accumulation 4:49
4. You Were The One Who Drew First 6:50
5. Which One Is The Real Dr. Otto 7:17
6. Hand As Tongue 1:33
7. Monuments Of Broken Balloons And Burnt Promises 8:53
8. Blugger! 4:35
9. Played 2 Or 3 Times 8:24
10. Why Is That Thing So Pointy? 0:56
11. Well Beneath The Sleeping Floor 7:38
12. Five Solo Statements On The Disappearance Of Elfego Bacca 5:51
13. Tricostomy 11:12
 
Лог создания рипа
Exact Audio Copy V1.0 beta 3 from 29. August 2011
EAC extraction logfile from 18. January 2014, 19:15
Vinny Golia / Music For Like Instruments - The Clarinets
Used drive : PIONEER DVD-RW DVR-115D Adapter: 0 ID: 0
Read mode : Burst
Read offset correction : 48
Overread into Lead-In and Lead-Out : No
Fill up missing offset samples with silence : Yes
Delete leading and trailing silent blocks : No
Null samples used in CRC calculations : Yes
Used interface : Installed external ASPI interface
Gap handling : Appended to previous track
Used output format : User Defined Encoder
Selected bitrate : 896 kBit/s
Quality : High
Add ID3 tag : No
Command line compressor : C:\Program Files\Exact Audio Copy\FLAC\FLAC.EXE
Additional command line options : -6 -V -T "ARTIST=%artist%" -T "TITLE=%title%" -T "ALBUM=%albumtitle%" -T "DATE=%year%" -T "TRACKNUMBER=%tracknr%" -T "GENRE=%genre%" -T "COMMENT=%comment%" -T "BAND=%albuminterpret%" -T "COMPOSER=%composer%" %haslyrics%--tag-from-file=LYRICS="%lyricsfile%"%haslyrics% -T "DISCNUMBER=%cdnumber%" -T "TOTALDISCS=%totalcds%" -T "TOTALTRACKS=%numtracks%" %hascover%--picture="%coverfile%"%hascover% %source% -o %dest%
TOC of the extracted CD
Track | Start | Length | Start sector | End sector
---------------------------------------------------------
1 | 0:00.00 | 3:58.37 | 0 | 17886
2 | 3:58.37 | 1:14.13 | 17887 | 23449
3 | 5:12.50 | 4:51.71 | 23450 | 45345
4 | 10:04.46 | 6:53.33 | 45346 | 76353
5 | 16:58.04 | 7:19.65 | 76354 | 109343
6 | 24:17.69 | 1:32.59 | 109344 | 116302
7 | 25:50.53 | 8:56.31 | 116303 | 156533
8 | 34:47.09 | 4:37.29 | 156534 | 177337
9 | 39:24.38 | 8:27.07 | 177338 | 215369
10 | 47:51.45 | 0:57.04 | 215370 | 219648
11 | 48:48.49 | 7:40.42 | 219649 | 254190
12 | 56:29.16 | 5:24.19 | 254191 | 278509
13 | 61:53.35 | 11:11.63 | 278510 | 328897
Track 1
Filename D:\zzz\01 - Clown Car Syndrome.wav
Pre-gap length 0:00:02.00
Peak level 96.6 %
Extraction speed 4.3 X
Test CRC 60584232
Copy CRC 60584232
Accurately ripped (confidence 1) [E6229B21] (AR v1)
Copy OK
Track 2
Filename D:\zzz\02 - The Fleming Valve.wav
Pre-gap length 0:00:03.00
Peak level 96.6 %
Extraction speed 4.5 X
Test CRC B61DAFCD
Copy CRC B61DAFCD
Accurately ripped (confidence 1) [73E4434F] (AR v1)
Copy OK
Track 3
Filename D:\zzz\03 - Accumulation.wav
Pre-gap length 0:00:03.00
Peak level 96.6 %
Extraction speed 4.9 X
Test CRC BB20F4EB
Copy CRC BB20F4EB
Accurately ripped (confidence 1) [D5968F93] (AR v1)
Copy OK
Track 4
Filename D:\zzz\04 - You Were The One Who Drew First.wav
Pre-gap length 0:00:03.00
Peak level 96.6 %
Extraction speed 5.4 X
Test CRC EF6D4F00
Copy CRC EF6D4F00
Accurately ripped (confidence 1) [BD4CB85A] (AR v1)
Copy OK
Track 5
Filename D:\zzz\05 - Which One Is The Real Dr. Otto.wav
Pre-gap length 0:00:03.00
Peak level 96.6 %
Extraction speed 6.0 X
Test CRC AFB49AC8
Copy CRC AFB49AC8
Accurately ripped (confidence 1) [E4CF890D] (AR v1)
Copy OK
Track 6
Filename D:\zzz\06 - Hand As Tongue.wav
Pre-gap length 0:00:03.00
Peak level 96.6 %
Extraction speed 6.3 X
Test CRC 3DEBBA34
Copy CRC 3DEBBA34
Accurately ripped (confidence 1) [C7233243] (AR v1)
Copy OK
Track 7
Filename D:\zzz\07 - Monuments Of Broken Balloons And Burnt Promises.wav
Peak level 96.6 %
Extraction speed 6.8 X
Test CRC 041BB1F4
Copy CRC 041BB1F4
Accurately ripped (confidence 1) [56CE3E96] (AR v1)
Copy OK
Track 8
Filename D:\zzz\08 - Blugger!.wav
Pre-gap length 0:00:03.00
Peak level 96.6 %
Extraction speed 7.2 X
Test CRC 11CECD38
Copy CRC 11CECD38
Accurately ripped (confidence 1) [AAA1D001] (AR v1)
Copy OK
Track 9
Filename D:\zzz\09 - Played 2 Or 3 Times.wav
Pre-gap length 0:00:02.00
Peak level 96.6 %
Extraction speed 7.7 X
Test CRC 1E98FDB1
Copy CRC 1E98FDB1
Accurately ripped (confidence 1) [C3CD16DA] (AR v1)
Copy OK
Track 10
Filename D:\zzz\10 - Why Is That Thing So Pointy.wav
Pre-gap length 0:00:03.00
Peak level 63.2 %
Extraction speed 7.8 X
Test CRC F2A11620
Copy CRC F2A11620
Accurately ripped (confidence 1) [A5EF61BC] (AR v1)
Copy OK
Track 11
Filename D:\zzz\11 - Well Beneath The Sleeping Floor.wav
Pre-gap length 0:00:01.00
Peak level 96.6 %
Extraction speed 8.3 X
Test CRC 6880C2C4
Copy CRC 6880C2C4
Accurately ripped (confidence 1) [BD0E211A] (AR v1)
Copy OK
Track 12
Filename D:\zzz\12 - Five Solo Statements On The Disappearance Of Elfego Bacca.wav
Pre-gap length 0:00:03.00
Peak level 93.4 %
Extraction speed 8.6 X
Test CRC 6DDC90A6
Copy CRC 6DDC90A6
Accurately ripped (confidence 1) [19CD55F2] (AR v1)
Copy OK
Track 13
Filename D:\zzz\13 - Tricostomy.wav
Pre-gap length 0:00:03.00
Peak level 96.6 %
Extraction speed 9.1 X
Test CRC 7F1ED391
Copy CRC 7A04B8BD
Cannot be verified as accurate (confidence 1) [F6E70729], AccurateRip returned [445A281A] (AR v2)
Copy OK
12 track(s) accurately ripped
1 track(s) could not be verified as accurate
Some tracks could not be verified as accurate
No errors occurred
End of status report
==== Log checksum 246ACF37BB62BC7A693E19262F734DA752210D27BC2043D6C68443927AC8ECC2 ====
 
Содержание индексной карты (.CUE)
REM GENRE "Avant-Garde Jazz"
REM DATE 2005
REM DISCID A511210D
REM COMMENT "ExactAudioCopy v1.0b3"
PERFORMER "Vinny Golia"
TITLE "Music For Like Instruments - The Clarinets"
FILE "01 - Clown Car Syndrome.wav" WAVE
TRACK 01 AUDIO
TITLE "Clown Car Syndrome"
PERFORMER "Vinny Golia"
INDEX 01 00:00:00
TRACK 02 AUDIO
TITLE "The Fleming Valve"
PERFORMER "Vinny Golia"
INDEX 00 03:55:37
FILE "02 - The Fleming Valve.wav" WAVE
INDEX 01 00:00:00
TRACK 03 AUDIO
TITLE "Accumulation"
PERFORMER "Vinny Golia"
INDEX 00 01:11:13
FILE "03 - Accumulation.wav" WAVE
INDEX 01 00:00:00
TRACK 04 AUDIO
TITLE "You Were The One Who Drew First"
PERFORMER "Vinny Golia"
INDEX 00 04:48:71
FILE "04 - You Were The One Who Drew First.wav" WAVE
INDEX 01 00:00:00
TRACK 05 AUDIO
TITLE "Which One Is The Real Dr. Otto"
PERFORMER "Vinny Golia"
INDEX 00 06:50:33
FILE "05 - Which One Is The Real Dr. Otto.wav" WAVE
INDEX 01 00:00:00
TRACK 06 AUDIO
TITLE "Hand As Tongue"
PERFORMER "Vinny Golia"
INDEX 00 07:16:65
FILE "06 - Hand As Tongue.wav" WAVE
INDEX 01 00:00:00
FILE "07 - Monuments Of Broken Balloons And Burnt Promises.wav" WAVE
TRACK 07 AUDIO
TITLE "Monuments Of Broken Balloons And Burnt Promises"
PERFORMER "Vinny Golia"
INDEX 01 00:00:00
TRACK 08 AUDIO
TITLE "Blugger!"
PERFORMER "Vinny Golia"
INDEX 00 08:53:31
FILE "08 - Blugger!.wav" WAVE
INDEX 01 00:00:00
TRACK 09 AUDIO
TITLE "Played 2 Or 3 Times"
PERFORMER "Vinny Golia"
INDEX 00 04:35:29
FILE "09 - Played 2 Or 3 Times.wav" WAVE
INDEX 01 00:00:00
TRACK 10 AUDIO
TITLE "Why Is That Thing So Pointy?"
PERFORMER "Vinny Golia"
INDEX 00 08:24:07
FILE "10 - Why Is That Thing So Pointy.wav" WAVE
INDEX 01 00:00:00
TRACK 11 AUDIO
TITLE "Well Beneath The Sleeping Floor"
PERFORMER "Vinny Golia"
INDEX 00 00:56:04
FILE "11 - Well Beneath The Sleeping Floor.wav" WAVE
INDEX 01 00:00:00
TRACK 12 AUDIO
TITLE "Five Solo Statements On The Disappearance Of Elfego Bacca"
PERFORMER "Vinny Golia"
INDEX 00 07:37:42
FILE "12 - Five Solo Statements On The Disappearance Of Elfego Bacca.wav" WAVE
INDEX 01 00:00:00
TRACK 13 AUDIO
TITLE "Tricostomy"
PERFORMER "Vinny Golia"
INDEX 00 05:21:19
FILE "13 - Tricostomy.wav" WAVE
INDEX 01 00:00:00
 
Лог проверки качества
d:\>d:\aucdtect -d/-m0 d:\zzz\*.wav
auCDtect: CD records authenticity detector, version 0.8.2
Copyright (c) 2004 Oleg Berngardt. All rights reserved.
Copyright (c) 2004 Alexander Djourik. All rights reserved.
------------------------------------------------------------
Processing file: [01. Clown Car Syndrome.wav]
------------------------------------------------------------
This track looks like CDDA with probability 100%
------------------------------------------------------------
Processing file: [02. The Fleming Valve.wav]
------------------------------------------------------------
This track looks like CDDA with probability 100%
------------------------------------------------------------
Processing file: [03. Accumulation.wav]
------------------------------------------------------------
This track looks like CDDA with probability 99%
------------------------------------------------------------
Processing file: [04. You Were The One Who Drew First.wav]
------------------------------------------------------------
This track looks like CDDA with probability 100%
------------------------------------------------------------
Processing file: [05. Which One Is The Real Dr. Otto.wav]
------------------------------------------------------------
This track looks like CDDA with probability 100%
------------------------------------------------------------
Processing file: [06. Hand As Tongue.wav]
------------------------------------------------------------
This track looks like CDDA with probability 99%
------------------------------------------------------------
Processing file: [07. Monuments Of Broken Balloons And Burnt Promises.wav]
------------------------------------------------------------
This track looks like CDDA with probability 100%
------------------------------------------------------------
Processing file: [08. Blugger!.wav]
------------------------------------------------------------
This track looks like CDDA with probability 100%
------------------------------------------------------------
Processing file: [09. Played 2 Or 3 Times.wav]
------------------------------------------------------------
This track looks like CDDA with probability 100%
------------------------------------------------------------
Processing file: [10. Why Is That Thing So Pointy.wav]
------------------------------------------------------------
This track looks like CDDA with probability 99%
------------------------------------------------------------
Processing file: [11. Well Beneath The Sleeping Floor.wav]
------------------------------------------------------------
This track looks like CDDA with probability 100%
------------------------------------------------------------
Processing file: [12. Five Solo Statements On The Disappearance Of Elfego Bacca.wav]
------------------------------------------------------------
This track looks like CDDA with probability 100%
------------------------------------------------------------
Processing file: [13. Tricostomy.wav]
------------------------------------------------------------
This track looks like CDDA with probability 99%
------------------------------------------------------------
Final Conclusion:
------------------------------------------------------------
These tracks looks like CDDA with probability 100%
Доп. информация:
 
Album Info & AAJ Review
All compositions & arrangements: Vinny Golia
Photography & design: David Rothbaum
Recorded at Newzone Studio, Los Angeles California
Wayne Peet: engineer
Recorded 6/7/05
Mixed 6/30/2005 & 7/1/2005
1. is dedicated to all the great comedians and especially to the timing genius of Mr. Laurel and his associate, Mr. Hardy.
4. is dedicated to Shintaro Katsu and 5. is dedicated to Jim Varney.
A note on the inclusion of the Taragoto on 8.: although not part of the clarinet family it is also not part of the saxophone family but it is included here anyway because I like to play it.
Quick, when was the last time you were confronted by a quintet of clarinets? Even in the wide-open world of creative jazz, who out there puts five black sticks in your ear and makes you like it? Yes, this is the latest installment of Vinny Golia's Music for Like Instruments series, and as with the others, he's aided by some of Southern California's leading up-and-comers. Brian Walsh, for instance, can be heard to good effect on recent releases by Harris Eisenstadt, Eugene Chadbourne and Dan Clucas, while Andrew Pask contributes mightily to both the austere beauty of Steuart Liebig's Stigtette and the boisterous sonic shenanigans of The Choir Boys, with Jeff Kaiser.
Here, they serve the diversity of Golia's evocative writing. During "Clown Car Syndrome," for example, Golia repeats a riff he could have lifted from any garage-rock band, then has the ensemble explode like a flock of birds being attacked by a hungry cat. The sustained, dark tones of "Played 2 or 3 Times" nod towards Messiaen's organ music, until the Zappa-esque melody comes dancing in on top of it. And no, that's not the sound of your speakers shredding during "Well Beneath the Sleeping Floor," it's whispering bass clarinets sharing secrets. Unless, of course, you're playing the CD too loudly, in which case it could be the sound of your woofers complaining.
In any event, no complaints here. For me, this is Golia's strongest Like Instruments set yet, and its musical rewards range far beyond what you'd expect from this lineup. However, it won't be until Golia convenes a tentet of tubaxes that the walls of the city will truly shake.
 
Состав
Vinny Golia: taragoto, Ab, Eb, A, Bb, alto, bass, contralto & contra-bass clarinets
Andrew Pask: Bb & bass clarinets
Cory Wright: Bb & bass clarinets
Jim Sullivan: G, Bb & bass clarinets
Brian Walsh: Bb & bass clarinets
Any questions -> support@pro-jazz.com. По всем вопросам пишите -> support@pro-jazz.com
23:22
131
Нет комментариев. Ваш будет первым!