Вы используете незарегистрированную версию компонента "Вкладки"!

Поиск

(Avant Garde Jazz) Larry Ochs Sax & Drumming Core - The Neon Truth - 2002, FLAC (tracks+.cue), lossless

(Avant Garde Jazz) Larry Ochs Sax & Drumming Core - The Neon Truth - 2002, FLAC (tracks+.cue), lossless
Треклист:
Larry Ochs Sax & Drumming Core - The Neon Truth
Жанр: Avant Garde Jazz
Страна-производитель диска: Italy
Год издания: 2002
Издатель (лейбл): Black Saint Records
Номер по каталогу: BSR 120 217-2
Аудиокодек: FLAC (*.flac)
Тип рипа: tracks+.cue
Битрейт аудио: lossless
Продолжительность: 50:31
Источник (релизер): собственный рип с оригинального диска.
Наличие сканов в содержимом раздачи: да
Треклист:
01. Wrong Right Wrong 6:31
02. The Neon Truth 4:20
03. Give Me 209 2:45
04. Finn Crosses Mars 11:49
05. Xanic Rides Again 6:44
06. And Nothing But... 2:30
07. Red Shift 14:01
08. Blues Keep Calling 1:51
 
Лог создания рипа
Exact Audio Copy V1.0 beta 3 from 29. August 2011
EAC extraction logfile from 15. September 2012, 17:29
Larry Ochs & Drumming Core / The Neon Truth
Used drive : TSSTcorpCDDVDW SH-S222A Adapter: 1 ID: 0
Read mode : Secure
Utilize accurate stream : Yes
Defeat audio cache : Yes
Make use of C2 pointers : No
Read offset correction : 6
Overread into Lead-In and Lead-Out : No
Fill up missing offset samples with silence : Yes
Delete leading and trailing silent blocks : No
Null samples used in CRC calculations : Yes
Used interface : Native Win32 interface for Win NT & 2000
Gap handling : Appended to previous track
Used output format : User Defined Encoder
Selected bitrate : 1024 kBit/s
Quality : High
Add ID3 tag : No
Command line compressor : C:\Tool\CD\EAC10\FLAC\FLAC.EXE
Additional command line options : -8 -V -T "ARTIST=%artist%" -T "TITLE=%title%" -T "ALBUM=%albumtitle%" -T "DATE=%year%" -T "TRACKNUMBER=%tracknr%" -T "GENRE=%genre%" -T "PERFORMER=%albuminterpret%" -T "COMPOSER=%composer%" %haslyrics%--tag-from-file=LYRICS="%lyricsfile%"%haslyrics% -T "ALBUMARTIST=%albumartist%" -T "ALBUM ARTIST=%albumartist%" -T "DISCNUMBER=%cdnumber%" -T "TOTALDISCS=%totalcds%" -T "TOTALTRACKS=%numtracks%" -T "COMMENT=EAC V1.0 beta 3, Secure Mode, Test & Copy, AccurateRip, FLAC -8" %source% -o %dest%
TOC of the extracted CD
Track | Start | Length | Start sector | End sector
---------------------------------------------------------
1 | 0:00.00 | 6:31.65 | 0 | 29389
2 | 6:31.65 | 4:20.67 | 29390 | 48956
3 | 10:52.57 | 2:45.05 | 48957 | 61336
4 | 13:37.62 | 11:49.60 | 61337 | 114571
5 | 25:27.47 | 6:44.05 | 114572 | 144876
6 | 32:11.52 | 2:30.30 | 144877 | 156156
7 | 34:42.07 | 14:01.05 | 156157 | 219236
8 | 48:43.12 | 1:51.53 | 219237 | 227614
Track 1
Filename C:\! UPLOAD\Larry Ochs Sax & Drumming Core - The Neon Truth (2002) [FLAC] {Black Saint}\01 - Wrong Right Wrong.wav
Pre-gap length 0:00:02.00
Peak level 99.9 %
Extraction speed 3.5 X
Track quality 100.0 %
Test CRC F48E969D
Copy CRC F48E969D
Track not present in AccurateRip database
Copy OK
Track 2
Filename C:\! UPLOAD\Larry Ochs Sax & Drumming Core - The Neon Truth (2002) [FLAC] {Black Saint}\02 - The Neon Truth.wav
Peak level 70.1 %
Extraction speed 3.4 X
Track quality 100.0 %
Test CRC 496131E7
Copy CRC 496131E7
Track not present in AccurateRip database
Copy OK
Track 3
Filename C:\! UPLOAD\Larry Ochs Sax & Drumming Core - The Neon Truth (2002) [FLAC] {Black Saint}\03 - Give Me 209.wav
Peak level 99.9 %
Extraction speed 3.2 X
Track quality 100.0 %
Test CRC FF92EF0A
Copy CRC FF92EF0A
Track not present in AccurateRip database
Copy OK
Track 4
Filename C:\! UPLOAD\Larry Ochs Sax & Drumming Core - The Neon Truth (2002) [FLAC] {Black Saint}\04 - Finn Crosses Mars.wav
Peak level 99.9 %
Extraction speed 3.5 X
Track quality 99.9 %
Test CRC C5E1B0AE
Copy CRC C5E1B0AE
Track not present in AccurateRip database
Copy OK
Track 5
Filename C:\! UPLOAD\Larry Ochs Sax & Drumming Core - The Neon Truth (2002) [FLAC] {Black Saint}\05 - Xanic Rides Again.wav
Peak level 75.8 %
Extraction speed 3.3 X
Track quality 99.9 %
Test CRC 9429C777
Copy CRC 9429C777
Track not present in AccurateRip database
Copy OK
Track 6
Filename C:\! UPLOAD\Larry Ochs Sax & Drumming Core - The Neon Truth (2002) [FLAC] {Black Saint}\06 - And Nothing But....wav
Peak level 99.9 %
Extraction speed 2.6 X
Track quality 99.9 %
Test CRC 727EE3BE
Copy CRC 727EE3BE
Track not present in AccurateRip database
Copy OK
Track 7
Filename C:\! UPLOAD\Larry Ochs Sax & Drumming Core - The Neon Truth (2002) [FLAC] {Black Saint}\07 - Red Shift.wav
Peak level 99.9 %
Extraction speed 3.8 X
Track quality 100.0 %
Test CRC 7F0476A7
Copy CRC 7F0476A7
Track not present in AccurateRip database
Copy OK
Track 8
Filename C:\! UPLOAD\Larry Ochs Sax & Drumming Core - The Neon Truth (2002) [FLAC] {Black Saint}\08 - Blues Keep Calling.wav
Peak level 98.3 %
Extraction speed 2.7 X
Track quality 100.0 %
Test CRC 5EA12D95
Copy CRC 5EA12D95
Track not present in AccurateRip database
Copy OK
None of the tracks are present in the AccurateRip database
No errors occurred
End of status report
---- CUETools DB Plugin V2.1.3
[CTDB TOCID: KwmGGBJr3NwmXMFAtD5HsA8qvuA-] disk not present in database, Submit result: KwmGGBJr3NwmXMFAtD5HsA8qvuA- has been uploaded
==== Log checksum 04BCD661DCE86CFCFA5291E808C21F21722FCD54EF2D23001C2672FF46BE2BCA ====
 
Содержание индексной карты (.CUE)
REM GENRE Jazz
REM DATE 2002
REM DISCID 730BDA08
REM COMMENT "ExactAudioCopy v1.0b3"
PERFORMER "Larry Ochs & Drumming Core"
TITLE "The Neon Truth"
FILE "01 - Wrong Right Wrong.wav" WAVE
TRACK 01 AUDIO
TITLE "Wrong Right Wrong"
PERFORMER "Larry Ochs & Drumming Core"
INDEX 01 00:00:00
FILE "02 - The Neon Truth.wav" WAVE
TRACK 02 AUDIO
TITLE "The Neon Truth"
PERFORMER "Larry Ochs & Drumming Core"
INDEX 01 00:00:00
FILE "03 - Give Me 209.wav" WAVE
TRACK 03 AUDIO
TITLE "Give Me 209"
PERFORMER "Larry Ochs & Drumming Core"
INDEX 01 00:00:00
FILE "04 - Finn Crosses Mars.wav" WAVE
TRACK 04 AUDIO
TITLE "Finn Crosses Mars"
PERFORMER "Larry Ochs & Drumming Core"
INDEX 01 00:00:00
FILE "05 - Xanic Rides Again.wav" WAVE
TRACK 05 AUDIO
TITLE "Xanic Rides Again"
PERFORMER "Larry Ochs & Drumming Core"
INDEX 01 00:00:00
FILE "06 - And Nothing But....wav" WAVE
TRACK 06 AUDIO
TITLE "And Nothing But..."
PERFORMER "Larry Ochs & Drumming Core"
INDEX 01 00:00:00
FILE "07 - Red Shift.wav" WAVE
TRACK 07 AUDIO
TITLE "Red Shift"
PERFORMER "Larry Ochs & Drumming Core"
INDEX 01 00:00:00
FILE "08 - Blues Keep Calling.wav" WAVE
TRACK 08 AUDIO
TITLE "Blues Keep Calling"
PERFORMER "Larry Ochs & Drumming Core"
INDEX 01 00:00:00
Доп. информация:
Recorded August 2000 at Mr. Toad's in San Francisco.
 
Об альбоме (last.fm)
Saxophonist Larry Ochs was born in N.Y.C. in 1949. Although he studied the trumpet a bit, he is most accomplished on the tenor and sopranino saxophones. Ochs has experience in musical production, as well, having founded Metalanguage Records in 1978, and owned and operated northern California’s Twelve Stars Studio. A co-founder of the world-renowned saxophone quartet Rova, Ochs has received Meet the Composer grants from across the U.S. and commissions from various programs throughout the ’80s and ’90s (including the year-long festival Antwerpen ‘93).
He composed music for Leslie Scalapino’s play Goya’s L.A. (1994) and for the film Letters Not About Love, winner of the 1998 South by Southwest Film Festival’s best documentary film. Ochs was a founding member of the Glenn Spearman Double Trio (Black Saint) and is a member of the new music trio Room. Still active in Rova, he also played in What We Live, a trio that released three albums by the end of the ’90s. Ochs formed his Sax & Drums Core as the millenium turned, releasing Neon Truth on his own imprint in 2002 and then moved to Atavistic for 2007’s Up from Under.
 
Об альбоме (Howard Mandel / Downbeat)
Larry Ochs, co-founder in 1977 of the ROVA Saxophone Quartet, is one of America’s most tenacious reedists. With considerable focus and depth, a big, craggy tone on tenor sax, an often sniggly, penetrating one on sopranino and more imaginative twists than have been widely acknowledged, Ochs won’t let go of the idea that applying his guts and smarts to his horns’ far reaches results in transcendent sonic art. These two projects—a studio recording with two drummers and a concert recording of his working trio—demonstrate Ochs’ breadth, raw feeling and simultaneous sensitivity. Both albums are strong, provocative and as far from easy listening as possible. But they are both very satisfying and suggest strategies that comprise “free” improvisation while moving beyond it.
Ochs explains his method in liners to The Neon Truth, explaining that on “Finn Crosses Mars” he starts with a spontaneously inspired passage—a line or “field”—varies it, phases in a second idea while phasing out the first, and has the drummers phase in and out of each others’ efforts. He writes that the piece always follows the same plot: “start ‘free’; locking into the phasing process as a trio; a drum duo; a brief final trio and a short closing head.”
What makes the music entrancing, though, is the variety of Ochs’ motives, phraseology and narratives. On “The Neon Truth,” he intimates the ache of klezmer clarinetists using sopranino, without lapsing into idiomatic cliché; on the 14-minute “Red Shift” he turns ghostly high tones into multiphonic quaver. Drummers Don Robinson and Scott Amendola listen closely to the saxist as well as to each other; they modulate their volumes and employ unbound creativity.
 
Об альбоме (ochs.cc)
Larry Ochs Sax & Drumming Core was formed in June 2000 as the trio of saxophone and 2 drummers for a special “concept album” that Ochs wanted to record. The Core's music then (and now): a meditation on and a 21st-century distillation of the songs and sounds of American and eastern European blues-shouters, and of traditional chant-singers from Asia and Africa. Many of these vocalists can be heard working in a similar context: backed by one string player, or one hand drummer, or two background singers. This is the space that this band originally went after. But then, it must be said, the end result is modern, as in “urban.”
 
Об альбоме (by Steve Loewy)
Inspired by Asian and African forms, Larry Ochs calls his sax and double-drum trio "Larry Ochs Sax & Drumming Core," and the minimal and unusual instrumentation is an effective vehicle for his intense improvisations.
While fans of Ochs may not find his playing here much different than elsewhere, the new instrumentation gives it a new perspective that succeeds in carving a small but exciting niche.
 
Состав
Larry Ochs - tenor and sopranino saxophones
Donald Robinson - drums
Scott Amendola - drums
Any questions -> support@pro-jazz.com. По всем вопросам пишите -> support@pro-jazz.com
04:19
164
Нет комментариев. Ваш будет первым!