Вы используете незарегистрированную версию компонента "Вкладки"!

Поиск

(Free Improvisation) Matt Turner - Shards Of Wiggett - 1999, FLAC (tracks+.cue), lossless

Треклист:
Matt Turner - Shards Of Wiggett
Жанр: Free Improvisation
Страна-производитель диска: USA
Год издания: 1999
Издатель (лейбл): Penumbra Music
Номер по каталогу: CD008
Аудиокодек: FLAC (*.flac)
Тип рипа: tracks+.cue
Битрейт аудио: lossless
Продолжительность: 55:55
Источник (релизер): собственный рип с оригинального диска.
Наличие сканов в содержимом раздачи: да
Треклист:
01. Shards Of Wiggett 6:07
02. Chill Room 2:40
03. House On The Hill 3:06
04. Breathe, Shudder 3:22
05. Elesoap 4:44
06. Captive 4:02
07. Centipeded Force 5:01
08. Interlude 3:27
09. Birds 10:13
10. Daria (dedicated To My Daughter, Daria Van De Loo) 4:08
11. Klangfarbencircus 5:39
12. Nibble 3:26
 
Лог создания рипа
Exact Audio Copy V1.0 beta 3 from 29. August 2011
EAC extraction logfile from 2. October 2012, 7:25
Matt Turner / Shards of Wiggett
Used drive : TSSTcorpCDDVDW SH-S222A Adapter: 1 ID: 0
Read mode : Secure
Utilize accurate stream : Yes
Defeat audio cache : Yes
Make use of C2 pointers : No
Read offset correction : 6
Overread into Lead-In and Lead-Out : No
Fill up missing offset samples with silence : Yes
Delete leading and trailing silent blocks : No
Null samples used in CRC calculations : Yes
Used interface : Native Win32 interface for Win NT & 2000
Gap handling : Appended to previous track
Used output format : User Defined Encoder
Selected bitrate : 896 kBit/s
Quality : High
Add ID3 tag : No
Command line compressor : C:\Tool\CD\EAC10\FLAC\FLAC.EXE
Additional command line options : -8 -V -T "ARTIST=%artist%" -T "TITLE=%title%" -T "ALBUM=%albumtitle%" -T "DATE=%year%" -T "TRACKNUMBER=%tracknr%" -T "GENRE=%genre%" -T "PERFORMER=%albuminterpret%" -T "COMPOSER=%composer%" %haslyrics%--tag-from-file=LYRICS="%lyricsfile%"%haslyrics% -T "ALBUMARTIST=%albumartist%" -T "ALBUM ARTIST=%albumartist%" -T "DISCNUMBER=%cdnumber%" -T "TOTALDISCS=%totalcds%" -T "TOTALTRACKS=%numtracks%" -T "COMMENT=EAC V1.0 beta 3, Secure Mode, Test & Copy, AccurateRip, FLAC -8" %source% -o %dest%
TOC of the extracted CD
Track | Start | Length | Start sector | End sector
---------------------------------------------------------
1 | 0:00.00 | 6:07.01 | 0 | 27525
2 | 6:07.01 | 2:40.71 | 27526 | 39596
3 | 8:47.72 | 3:06.60 | 39597 | 53606
4 | 11:54.57 | 3:22.61 | 53607 | 68817
5 | 15:17.43 | 4:44.35 | 68818 | 90152
6 | 20:02.03 | 4:02.48 | 90153 | 108350
7 | 24:04.51 | 5:01.42 | 108351 | 130967
8 | 29:06.18 | 3:27.23 | 130968 | 146515
9 | 32:33.41 | 10:13.28 | 146516 | 192518
10 | 42:46.69 | 4:08.08 | 192519 | 211126
11 | 46:55.02 | 5:39.40 | 211127 | 236591
12 | 52:34.42 | 3:26.61 | 236592 | 252102
Track 1
Filename C:\! UPLOAD\Matt Turner - Shards of Wiggett (1999) [FLAC] {Penumbra}\01 - Shards of Wiggett.wav
Pre-gap length 0:00:02.00
Peak level 88.6 %
Extraction speed 3.5 X
Track quality 100.0 %
Test CRC 4DD42C9E
Copy CRC 4DD42C9E
Track not present in AccurateRip database
Copy OK
Track 2
Filename C:\! UPLOAD\Matt Turner - Shards of Wiggett (1999) [FLAC] {Penumbra}\02 - Chill Room.wav
Peak level 29.6 %
Extraction speed 3.1 X
Track quality 100.0 %
Test CRC A8B29C84
Copy CRC A8B29C84
Track not present in AccurateRip database
Copy OK
Track 3
Filename C:\! UPLOAD\Matt Turner - Shards of Wiggett (1999) [FLAC] {Penumbra}\03 - House on the Hill.wav
Peak level 49.2 %
Extraction speed 3.2 X
Track quality 100.0 %
Test CRC 76FAD877
Copy CRC 76FAD877
Track not present in AccurateRip database
Copy OK
Track 4
Filename C:\! UPLOAD\Matt Turner - Shards of Wiggett (1999) [FLAC] {Penumbra}\04 - Breathe, Shudder.wav
Peak level 20.8 %
Extraction speed 2.8 X
Track quality 99.9 %
Test CRC DF56BC2D
Copy CRC DF56BC2D
Track not present in AccurateRip database
Copy OK
Track 5
Filename C:\! UPLOAD\Matt Turner - Shards of Wiggett (1999) [FLAC] {Penumbra}\05 - Elesoap.wav
Peak level 91.7 %
Extraction speed 3.4 X
Track quality 100.0 %
Test CRC 8A3FA00A
Copy CRC 8A3FA00A
Track not present in AccurateRip database
Copy OK
Track 6
Filename C:\! UPLOAD\Matt Turner - Shards of Wiggett (1999) [FLAC] {Penumbra}\06 - Captive.wav
Peak level 28.8 %
Extraction speed 3.4 X
Track quality 100.0 %
Test CRC 073A2C93
Copy CRC 073A2C93
Track not present in AccurateRip database
Copy OK
Track 7
Filename C:\! UPLOAD\Matt Turner - Shards of Wiggett (1999) [FLAC] {Penumbra}\07 - Centipedel Force.wav
Peak level 49.5 %
Extraction speed 3.5 X
Track quality 100.0 %
Test CRC 615DD76A
Copy CRC 615DD76A
Track not present in AccurateRip database
Copy OK
Track 8
Filename C:\! UPLOAD\Matt Turner - Shards of Wiggett (1999) [FLAC] {Penumbra}\08 - Interlude.wav
Peak level 13.1 %
Extraction speed 3.3 X
Track quality 100.0 %
Test CRC 41EC1B90
Copy CRC 41EC1B90
Track not present in AccurateRip database
Copy OK
Track 9
Filename C:\! UPLOAD\Matt Turner - Shards of Wiggett (1999) [FLAC] {Penumbra}\09 - Birds.wav
Peak level 55.6 %
Extraction speed 3.7 X
Track quality 100.0 %
Test CRC 4E84D50C
Copy CRC 4E84D50C
Track not present in AccurateRip database
Copy OK
Track 10
Filename C:\! UPLOAD\Matt Turner - Shards of Wiggett (1999) [FLAC] {Penumbra}\10 - Daria.wav
Peak level 53.4 %
Extraction speed 3.4 X
Track quality 100.0 %
Test CRC 24DBABA1
Copy CRC 24DBABA1
Track not present in AccurateRip database
Copy OK
Track 11
Filename C:\! UPLOAD\Matt Turner - Shards of Wiggett (1999) [FLAC] {Penumbra}\11 - Klangfarbencircus.wav
Peak level 79.8 %
Extraction speed 3.5 X
Track quality 100.0 %
Test CRC EDC49B71
Copy CRC EDC49B71
Track not present in AccurateRip database
Copy OK
Track 12
Filename C:\! UPLOAD\Matt Turner - Shards of Wiggett (1999) [FLAC] {Penumbra}\12 - Nibble.wav
Peak level 11.0 %
Extraction speed 2.6 X
Track quality 99.9 %
Test CRC 1D209B9F
Copy CRC 1D209B9F
Track not present in AccurateRip database
Copy OK
None of the tracks are present in the AccurateRip database
No errors occurred
End of status report
---- CUETools DB Plugin V2.1.3
[CTDB TOCID: _D3c5GhdrHRcrDxuXkoGHGcRLqU-] found, Submit result: already submitted
[9c1fead0] (1/1) Accurately ripped
==== Log checksum 04680565162F254A4F93820288B7E99FFD5F38DBDD234E4952061D59F2CCD9A9 ====
 
Содержание индексной карты (.CUE)
REM GENRE Avantgarde
REM DATE 1999
REM DISCID B90D210C
REM COMMENT "ExactAudioCopy v1.0b3"
CATALOG 0000000000000
PERFORMER "Matt Turner"
TITLE "Shards of Wiggett"
FILE "01 - Shards of Wiggett.wav" WAVE
TRACK 01 AUDIO
TITLE "Shards of Wiggett"
PERFORMER "Matt Turner"
FLAGS DCP
INDEX 01 00:00:00
FILE "02 - Chill Room.wav" WAVE
TRACK 02 AUDIO
TITLE "Chill Room"
PERFORMER "Matt Turner"
FLAGS DCP
INDEX 01 00:00:00
FILE "03 - House on the Hill.wav" WAVE
TRACK 03 AUDIO
TITLE "House on the Hill"
PERFORMER "Matt Turner"
FLAGS DCP
INDEX 01 00:00:00
FILE "04 - Breathe, Shudder.wav" WAVE
TRACK 04 AUDIO
TITLE "Breathe, Shudder"
PERFORMER "Matt Turner"
FLAGS DCP
INDEX 01 00:00:00
FILE "05 - Elesoap.wav" WAVE
TRACK 05 AUDIO
TITLE "Elesoap"
PERFORMER "Matt Turner"
FLAGS DCP
INDEX 01 00:00:00
FILE "06 - Captive.wav" WAVE
TRACK 06 AUDIO
TITLE "Captive"
PERFORMER "Matt Turner"
FLAGS DCP
INDEX 01 00:00:00
FILE "07 - Centipedel Force.wav" WAVE
TRACK 07 AUDIO
TITLE "Centipedel Force"
PERFORMER "Matt Turner"
FLAGS DCP
INDEX 01 00:00:00
FILE "08 - Interlude.wav" WAVE
TRACK 08 AUDIO
TITLE "Interlude"
PERFORMER "Matt Turner"
FLAGS DCP
INDEX 01 00:00:00
FILE "09 - Birds.wav" WAVE
TRACK 09 AUDIO
TITLE "Birds"
PERFORMER "Matt Turner"
FLAGS DCP
INDEX 01 00:00:00
FILE "10 - Daria.wav" WAVE
TRACK 10 AUDIO
TITLE "Daria"
PERFORMER "Matt Turner"
FLAGS DCP
INDEX 01 00:00:00
FILE "11 - Klangfarbencircus.wav" WAVE
TRACK 11 AUDIO
TITLE "Klangfarbencircus"
PERFORMER "Matt Turner"
FLAGS DCP
INDEX 01 00:00:00
FILE "12 - Nibble.wav" WAVE
TRACK 12 AUDIO
TITLE "Nibble"
PERFORMER "Matt Turner"
FLAGS DCP
INDEX 01 00:00:00
Доп. информация:
Recorded on July 7, 1999 at Lawrence University Recording Studio.
Limited edition of 500 copies.
 
Об альбоме (by François Couture)
Turner comes through as a solid improviser, capable of exploiting both tonal and rhythmical possibilities of the piano. He plays the keyboard, the strings, the frame, all with passion and deep understanding of the instrument. The opening piece "Shards of Wiggett" is a fast-paced and violent improv that will convince any listener of Turner's strong technique. On "Chill Room" and "House on the Hill," the pianist turns into an impressionist romantic type, not unlike Ernesto Diaz-Infante (see Ucross Journal and Itz'at). These more delicate pieces are completed by harsher improvs like the very percussive "Elesoap" and the abstract "Nibble."
One of the strongest moments on this CD is "Birds," a beautiful piece made of one continuous string of high notes depicting chirps. Shards of Wiggett reveals a very good pianist. Everyone who encouraged Turner to record on piano was right: It would have been wasted talent if he had not.
 
Состав
Matt Turner - piano
Any questions -> support@pro-jazz.com. По всем вопросам пишите -> support@pro-jazz.com
04:19
136
Нет комментариев. Ваш будет первым!