Вы используете незарегистрированную версию компонента "Вкладки"!

Поиск

(Free Improvisation, Free Jazz) The Skronktet West - EL - 2003, FLAC (tracks+.cue), lossless

(Free Improvisation, Free Jazz) The Skronktet West - EL - 2003, FLAC (tracks+.cue), lossless
Треклист:
The Skronktet West - EL
Жанр: Free Improvisation, Free Jazz
Страна-производитель диска: Canada
Год издания: 2003
Издатель (лейбл): Spool
Номер по каталогу: ARC 01
Аудиокодек: FLAC (*.flac)
Тип рипа: tracks+.cue
Битрейт аудио: lossless
Продолжительность: 50:18
Источник (релизер): собственный рип с оригинального диска.
Наличие сканов в содержимом раздачи: да
Треклист:
01. Tddk 5:16
02. Shrrr 9:20
03. Toad In The Hall 1:24
04. Sdppd + Prruer 13:57
05. Thray 6:28
06. Ritmos A 4:20
07. Ellhg + Sttm [Krind] 9:21
 
Лог создания рипа
Exact Audio Copy V1.0 beta 3 from 29. August 2011
EAC extraction logfile from 15. September 2012, 22:32
The Skronktet West / EL
Used drive : TSSTcorpCDDVDW SH-S222A Adapter: 1 ID: 0
Read mode : Secure
Utilize accurate stream : Yes
Defeat audio cache : Yes
Make use of C2 pointers : No
Read offset correction : 6
Overread into Lead-In and Lead-Out : No
Fill up missing offset samples with silence : Yes
Delete leading and trailing silent blocks : No
Null samples used in CRC calculations : Yes
Used interface : Native Win32 interface for Win NT & 2000
Gap handling : Appended to previous track
Used output format : User Defined Encoder
Selected bitrate : 896 kBit/s
Quality : High
Add ID3 tag : No
Command line compressor : C:\Tool\CD\EAC10\FLAC\FLAC.EXE
Additional command line options : -6 -V -T "ARTIST=%artist%" -T "TITLE=%title%" -T "ALBUM=%albumtitle%" -T "DATE=%year%" -T "TRACKNUMBER=%tracknr%" -T "GENRE=%genre%" -T "COMMENT=%comment%" -T "BAND=%albuminterpret%" -T "COMPOSER=%composer%" %haslyrics%--tag-from-file=LYRICS="%lyricsfile%"%haslyrics% -T "DISCNUMBER=%cdnumber%" -T "TOTALDISCS=%totalcds%" -T "TOTALTRACKS=%numtracks%" %hascover%--picture="%coverfile%"%hascover% %source% -o %dest%
TOC of the extracted CD
Track | Start | Length | Start sector | End sector
---------------------------------------------------------
1 | 0:00.00 | 5:14.58 | 0 | 23607
2 | 5:14.58 | 9:38.61 | 23608 | 67018
3 | 14:53.44 | 1:22.36 | 67019 | 73204
4 | 16:16.05 | 13:55.39 | 73205 | 135868
5 | 30:11.44 | 6:26.71 | 135869 | 164889
6 | 36:38.40 | 4:18.60 | 164890 | 184299
7 | 40:57.25 | 9:20.61 | 184300 | 226360
Track 1
Filename C:\! UPLOAD\The Skronktet West - EL (2003) [FLAC] {Spool}\01 - Tddk.wav
Pre-gap length 0:00:02.00
Peak level 93.8 %
Extraction speed 3.4 X
Track quality 100.0 %
Test CRC 2ED6226A
Copy CRC 2ED6226A
Accurately ripped (confidence 1) [594D5CEF] (AR v1)
Copy OK
Track 2
Filename C:\! UPLOAD\The Skronktet West - EL (2003) [FLAC] {Spool}\02 - Shrrr.wav
Peak level 93.8 %
Extraction speed 3.6 X
Track quality 100.0 %
Test CRC BB55372C
Copy CRC BB55372C
Accurately ripped (confidence 1) [E430D62B] (AR v1)
Copy OK
Track 3
Filename C:\! UPLOAD\The Skronktet West - EL (2003) [FLAC] {Spool}\03 - Toad in the Hole.wav
Peak level 93.8 %
Extraction speed 2.6 X
Track quality 100.0 %
Test CRC 3CCB6966
Copy CRC 3CCB6966
Accurately ripped (confidence 1) [2386A6FB] (AR v1)
Copy OK
Track 4
Filename C:\! UPLOAD\The Skronktet West - EL (2003) [FLAC] {Spool}\04 - Sdppd plus Prruer.wav
Peak level 93.8 %
Extraction speed 3.7 X
Track quality 100.0 %
Test CRC 4227E5A0
Copy CRC 4227E5A0
Accurately ripped (confidence 1) [9BCB96F9] (AR v1)
Copy OK
Track 5
Filename C:\! UPLOAD\The Skronktet West - EL (2003) [FLAC] {Spool}\05 - Thray.wav
Peak level 90.5 %
Extraction speed 3.5 X
Track quality 100.0 %
Test CRC 00735D08
Copy CRC 00735D08
Accurately ripped (confidence 1) [6D728B16] (AR v1)
Copy OK
Track 6
Filename C:\! UPLOAD\The Skronktet West - EL (2003) [FLAC] {Spool}\06 - Ritmos A.wav
Peak level 92.5 %
Extraction speed 3.3 X
Track quality 100.0 %
Test CRC 23E0FDE6
Copy CRC 23E0FDE6
Accurately ripped (confidence 1) [3DFDDE3B] (AR v1)
Copy OK
Track 7
Filename C:\! UPLOAD\The Skronktet West - EL (2003) [FLAC] {Spool}\07 - Ellhg plus Sttm (Krind).wav
Peak level 93.8 %
Extraction speed 3.5 X
Track quality 100.0 %
Test CRC 8C2BC09A
Copy CRC 8C2BC09A
Accurately ripped (confidence 1) [DFBCF749] (AR v1)
Copy OK
All tracks accurately ripped
No errors occurred
End of status report
---- CUETools DB Plugin V2.1.3
[CTDB TOCID: FUrvEjrOV91MITEJMTORYuvtnlw-] found, Submit result: already submitted
[fa4d8285] (1/1) Accurately ripped
==== Log checksum 9956BAF5B8FB183B1A7ED0C1AE283553E4D7D472537E3FB40787A1F87E22D345 ====
 
Содержание индексной карты (.CUE)
REM GENRE Jazz
REM DATE 2003
REM DISCID 5F0BCA07
REM COMMENT "ExactAudioCopy v1.0b3"
PERFORMER "The Skronktet West"
TITLE "EL"
FILE "01 - Tddk.wav" WAVE
TRACK 01 AUDIO
TITLE "Tddk"
PERFORMER "The Skronktet West"
FLAGS DCP
INDEX 01 00:00:00
FILE "02 - Shrrr.wav" WAVE
TRACK 02 AUDIO
TITLE "Shrrr"
PERFORMER "The Skronktet West"
FLAGS DCP
INDEX 01 00:00:00
FILE "03 - Toad in the Hole.wav" WAVE
TRACK 03 AUDIO
TITLE "Toad in the Hole"
PERFORMER "The Skronktet West"
FLAGS DCP
INDEX 01 00:00:00
FILE "04 - Sdppd plus Prruer.wav" WAVE
TRACK 04 AUDIO
TITLE "Sdppd plus Prruer"
PERFORMER "The Skronktet West"
FLAGS DCP
INDEX 01 00:00:00
FILE "05 - Thray.wav" WAVE
TRACK 05 AUDIO
TITLE "Thray"
PERFORMER "The Skronktet West"
FLAGS DCP
INDEX 01 00:00:00
FILE "06 - Ritmos A.wav" WAVE
TRACK 06 AUDIO
TITLE "Ritmos A"
PERFORMER "The Skronktet West"
FLAGS DCP
INDEX 01 00:00:00
FILE "07 - Ellhg plus Sttm (Krind).wav" WAVE
TRACK 07 AUDIO
TITLE "Ellhg plus Sttm (Krind)"
PERFORMER "The Skronktet West"
FLAGS DCP
INDEX 01 00:00:00
Доп. информация:
Recorded April 14, 2001, at Boomtown in Sausalito, Ca.
 
Об альбоме (Steven Loewy, amg)
"... a splendid stew of carefully crafted notated and improvised portions, a limitless feast....With this album Rosenberg reaffirms his emerging status as a significant free improvisor and writer, shedding some of the excess abstraction of his earliest recordings and infusing his works with humor. His solos take on qualities of a man in a rush who knows where he is going but has no time to dawdle. Rosenberg's launching point takes a cue from Braxton, but he is careful not to clone but to embrace and the rules attest to Rosenberg's ability to maintain his individuality.
Shiurba is a remarkable guitarist and he contributes significantly with his off-beat playing, as does percussionist Gino Robair. There is electricity in the air and Rosenberg exploits it fully, creating a stunningly, sophisticated album that is as fun as it is serious, fulfilling what George Gruntz terms Serious Fun."
 
Об альбоме (Dan Warburton, Paris Transatlantic Magazine
"Rosenberg's compositions are as thorny and challenging as their titles ("Shrrr", "Sdppd", "Sttm"...) - his scores leave much room for improvisation, but also present fiendish problems of ensemble coordination, which are brilliantly handled by the Skronktet West. It's nothing less than a supergroup of sorts - in addition to Rosenberg's saxophones and contrabass clarinet, the quintet includes clarinet virtuoso Matt Ingalls, guitarist John Shiurba, bassist Morgan Guberman, and, driving the machine along with consummate finesse, Gino Robair on percussion.
If you leave your brain outside and expect yet another helping of run of the mill improv fizzes and wheezes, you're not going to get much out of this album; if however, you care to listen - with an emphasis on care - you'll find it one of the richest and most satisfying releases of the year."
 
Об альбоме (Charlie Wilmoth, Dusted Reviews)
"All five players are strong and it's a testament to their ability that the Skronktet is able to seamlessly transition among various styles - musically, it's a long way from many of Rosenberg's compositions to the noisy improv that often follows, but none of the changes seem forced. Finally, it's worth mentioning that EL sounds terrific: David Greenberg's recording is superb.
For fans of the improv scenes in, say, New York or Chicago who are unfamiliar with what's happening on the West Coast, EL is an excellent introduction because it features a number of the Bay Area's best players playing well and imaginatively in several improv styles."
 
Состав
Morgan Guberman - contrabass
Matt Ingalls - clarinet
Gino Robair - percussion
Scott Rosenburg - reeds
John Shiurba - guitar
Any questions -> support@pro-jazz.com. По всем вопросам пишите -> support@pro-jazz.com
04:18
146
Нет комментариев. Ваш будет первым!