Вы используете незарегистрированную версию компонента "Вкладки"!

Поиск

(Avant-Garde Jazz / Jazz-Rock) [CD] Luis Lopes Lisbon Berlin Trio (Robert Landfermann, Christian Lillinger) - The Line - 2014, FLAC (tracks+.cue), lossless

(Avant-Garde Jazz / Jazz-Rock) [CD] Luis Lopes Lisbon Berlin Trio (Robert Landfermann, Christian Lillinger) - The Line - 2014, FLAC (tracks+.cue), lossless
Треклист:
Luís Lopes Lisbon Berlin Trio - The Line
Жанр: Avant-Garde Jazz / Jazz-Rock
Носитель: CD
Страна-производитель диска (релиза): Portugal
Год издания: 2014
Издатель (лейбл): Clean Feed
Номер по каталогу: CF312CD
Аудиокодек: FLAC (*.flac)
Тип рипа: tracks+.cue
Битрейт аудио: lossless
Продолжительность: 00:39:20
Источник (релизер): what.cd / спасибо 6060842
Наличие сканов в содержимом раздачи: нет
Треклист:
1. Dark Suite (Prologue) (04:48)
2. Vertigo (05:52)
3. Mother Snake (12:57)
4. Dark Suit (Epilogue) (05:55)
5. The Line (05:57)
6. Schwarzwald (03:56)
Доп. информация:
Musicians:
Luís Lopes - electric guitar
Robert Landfermann - double bass
Christian Lillinger - drums
Luís Lopes Lisbon Berlin Trio - The Line cleanfeed-records.com
Luís Lopes Lisbon Berlin Trio - The Line allaboutjazz.com
Robert Landfermann Official Site
Robert Landfermann from Wikipedia, the free encyclopedia
 
... photo ...

 
... review ...
Usually, free improvisation and conceptualism don’t mix. To improvise is to be intuitive and spontaneous, living little space to intelllectualized constructions. In the case of the second album by the Luís Lopes Lisbon-Berlin Trio (Robert Landfermann and Christian Lillinger representing the German side) there’s a rare mix of the two approaches. “The Line” derives from the notion of time like a broken line of events, considering all the last scientific considerations that past, present and future doesn’t really exist. The music here happens as an interrupted sequence, with no beginning or end, as if this CD is a little fragment of eternity. In the middle ground from free improv and noise (yes, noise: Lopes’ guitar feedbacks and distortions make us recall Masayuki Takanayagi), other sub-themes appear: the mysterious supra-human entity in “Vertigo”, the serpent-city (Lisbon) of “Mother Snake”, the nightmares of “Dark Suite” and the demons and witches of “Schwarzwald”. Impressive.
~ cleanfeed-records.com
 
Лог создания рипа
X Lossless Decoder version 20141129 (148.1)
XLD extraction logfile from 2015-02-10 00:20:30 +0300
Luís Lopes Lisbon Berlin Trio / The Line
Used drive : HL-DT-ST DVDRW GX30N (revision RP09)
Media type : Pressed CD
Ripper mode : XLD Secure Ripper
Disable audio cache : OK for the drive with a cache less than 1375KiB
Make use of C2 pointers : NO
Read offset correction : 6
Max retry count : 10000
Gap status : Analyzed, Appended (except HTOA)
TOC of the extracted CD
Track | Start | Length | Start sector | End sector
---------------------------------------------------------
1 | 00:00:00 | 04:47:43 | 0 | 21567
2 | 04:47:43 | 05:52:13 | 21568 | 47980
3 | 10:39:56 | 12:56:43 | 47981 | 106223
4 | 23:36:24 | 05:55:08 | 106224 | 132856
5 | 29:31:32 | 05:57:19 | 132857 | 159650
6 | 35:28:51 | 03:56:26 | 159651 | 177376
AccurateRip Summary
Disc not found in AccurateRip DB.
All Tracks
Album gain : -8.96 dB
Peak : 0.891388
Statistics
Read error : 0
Jitter error (maybe fixed) : 0
Retry sector count : 0
Damaged sector count : 0
Track 01
Filename : /Users/Shared/Grabbed/Luis Lopes Lisbon Berlin Trio/2014 - The Line/01 - Dark Suite (Prologue).flac
Pre-gap length : 00:02:00
Track gain : 3.70 dB
Peak : 0.888184
CRC32 hash (test run) : 5259FA76
CRC32 hash : 5259FA76
CRC32 hash (skip zero) : 58BAD47A
AccurateRip v1 signature : 12ADFFB3
AccurateRip v2 signature : 10238678
->Track not present in AccurateRip database.
Statistics
Read error : 0
Jitter error (maybe fixed) : 0
Retry sector count : 0
Damaged sector count : 0
Track 02
Filename : /Users/Shared/Grabbed/Luis Lopes Lisbon Berlin Trio/2014 - The Line/02 - Vertigo.flac
Pre-gap length : 00:01:39
Track gain : -7.05 dB
Peak : 0.891388
CRC32 hash (test run) : 56349BC9
CRC32 hash : 56349BC9
CRC32 hash (skip zero) : 5A82F8C2
AccurateRip v1 signature : ADEB1AF3
AccurateRip v2 signature : 53533783
->Track not present in AccurateRip database.
Statistics
Read error : 0
Jitter error (maybe fixed) : 0
Retry sector count : 0
Damaged sector count : 0
Track 03
Filename : /Users/Shared/Grabbed/Luis Lopes Lisbon Berlin Trio/2014 - The Line/03 - Mother Snake.flac
Pre-gap length : 00:00:12
Track gain : -10.43 dB
Peak : 0.891388
CRC32 hash (test run) : 52305340
CRC32 hash : 52305340
CRC32 hash (skip zero) : 8917C197
AccurateRip v1 signature : BDF7B4C8
AccurateRip v2 signature : 4F5750E2
->Track not present in AccurateRip database.
Statistics
Read error : 0
Jitter error (maybe fixed) : 0
Retry sector count : 0
Damaged sector count : 0
Track 04
Filename : /Users/Shared/Grabbed/Luis Lopes Lisbon Berlin Trio/2014 - The Line/04 - Dark Suit (Epilogue).flac
Pre-gap length : 00:01:22
Track gain : -1.35 dB
Peak : 0.891388
CRC32 hash (test run) : E70AF2CD
CRC32 hash : E70AF2CD
CRC32 hash (skip zero) : 3D8C0F15
AccurateRip v1 signature : 06FF20A9
AccurateRip v2 signature : 9B2D6500
->Track not present in AccurateRip database.
Statistics
Read error : 0
Jitter error (maybe fixed) : 0
Retry sector count : 0
Damaged sector count : 0
Track 05
Filename : /Users/Shared/Grabbed/Luis Lopes Lisbon Berlin Trio/2014 - The Line/05 - The Line.flac
Pre-gap length : 00:00:32
Track gain : -5.61 dB
Peak : 0.891388
CRC32 hash (test run) : 3336AF24
CRC32 hash : 3336AF24
CRC32 hash (skip zero) : F9A1DE9A
AccurateRip v1 signature : 74A6C00D
AccurateRip v2 signature : DBF05D65
->Track not present in AccurateRip database.
Statistics
Read error : 0
Jitter error (maybe fixed) : 0
Retry sector count : 0
Damaged sector count : 0
Track 06
Filename : /Users/Shared/Grabbed/Luis Lopes Lisbon Berlin Trio/2014 - The Line/06 - Schwarzwald.flac
Pre-gap length : 00:00:63
Track gain : -5.96 dB
Peak : 0.891388
CRC32 hash (test run) : 4ED50D9B
CRC32 hash : 4ED50D9B
CRC32 hash (skip zero) : 3E3A3AF9
AccurateRip v1 signature : C6513DAB
AccurateRip v2 signature : AE6E04B6
->Track not present in AccurateRip database.
Statistics
Read error : 0
Jitter error (maybe fixed) : 0
Retry sector count : 0
Damaged sector count : 0
No errors occurred
End of status report
-----BEGIN XLD SIGNATURE-----
O1TwnZ87MqQZpnzChHx3xEIUzJO4m2mpQWRaR8ZiZ_U0l5OfFRi43leaw2SvkWdr6QFnDxwuwBzRdmTMQU8g5l3gmLM4kxN1wF4B0vC
-----END XLD SIGNATURE-----
 
Содержание индексной карты (.CUE)
TITLE "The Line"
PERFORMER "Luis Lopes Lisbon Berlin Trio"
REM GENRE "Free Jazz"
REM DATE "2014"
REM DISCNUMBER 1
REM TOTALDISCS 1
REM DISCID 46093D06
REM REPLAYGAIN_ALBUM_GAIN -8.96 dB
REM REPLAYGAIN_ALBUM_PEAK 0.891388
FILE "01 - Dark Suite (Prologue).flac" WAVE
TRACK 01 AUDIO
TITLE "Dark Suite (Prologue)"
PERFORMER "Luis Lopes Lisbon Berlin Trio"
ISRC PTNF11409121
REM REPLAYGAIN_TRACK_GAIN 3.70 dB
REM REPLAYGAIN_TRACK_PEAK 0.888184
INDEX 01 00:00:00
TRACK 02 AUDIO
TITLE "Vertigo"
PERFORMER "Luis Lopes Lisbon Berlin Trio"
ISRC PTNF11409122
REM REPLAYGAIN_TRACK_GAIN -7.05 dB
REM REPLAYGAIN_TRACK_PEAK 0.891388
INDEX 00 04:46:04
FILE "02 - Vertigo.flac" WAVE
INDEX 01 00:00:00
TRACK 03 AUDIO
TITLE "Mother Snake"
PERFORMER "Luis Lopes Lisbon Berlin Trio"
ISRC PTNF11409123
REM REPLAYGAIN_TRACK_GAIN -10.43 dB
REM REPLAYGAIN_TRACK_PEAK 0.891388
INDEX 00 05:52:01
FILE "03 - Mother Snake.flac" WAVE
INDEX 01 00:00:00
TRACK 04 AUDIO
TITLE "Dark Suit (Epilogue)"
PERFORMER "Luis Lopes Lisbon Berlin Trio"
ISRC PTNF11409124
REM REPLAYGAIN_TRACK_GAIN -1.35 dB
REM REPLAYGAIN_TRACK_PEAK 0.891388
INDEX 00 12:55:21
FILE "04 - Dark Suit (Epilogue).flac" WAVE
INDEX 01 00:00:00
TRACK 05 AUDIO
TITLE "The Line"
PERFORMER "Luis Lopes Lisbon Berlin Trio"
ISRC PTNF11409125
REM REPLAYGAIN_TRACK_GAIN -5.61 dB
REM REPLAYGAIN_TRACK_PEAK 0.891388
INDEX 00 05:54:51
FILE "05 - The Line.flac" WAVE
INDEX 01 00:00:00
TRACK 06 AUDIO
TITLE "Schwarzwald"
PERFORMER "Luis Lopes Lisbon Berlin Trio"
ISRC PTNF11409126
REM REPLAYGAIN_TRACK_GAIN -5.96 dB
REM REPLAYGAIN_TRACK_PEAK 0.891388
INDEX 00 05:56:31
FILE "06 - Schwarzwald.flac" WAVE
INDEX 01 00:00:00
По всем вопросам пишите личное сообщение пользователю M0p94ok.
09:13
218
Нет комментариев. Ваш будет первым!