Вы используете незарегистрированную версию компонента "Вкладки"!

Поиск

(Avant-Garde Jazz) [CD] Luis Lopes Humanization 4tet (Rodrigo Amado, Aaron Gonzalez, Stefan Gonzalez) - Live in Madison - 2013 [Ayler Records AYLCD-134], FLAC (tracks+.cue), lossless

(Avant-Garde Jazz) [CD] Luis Lopes Humanization 4tet (Rodrigo Amado, Aaron Gonzalez, Stefan Gonzalez) - Live in Madison - 2013 [Ayler Records AYLCD-134], FLAC (tracks+.cue), lossless
Треклист:
Luís Lopes Humanization 4tet - Live in Madison
Жанр: Avant-Garde Jazz
Носитель: CD
Страна-производитель диска (релиза): France
Год издания: 2013
Издатель (лейбл): Ayler Records
Номер по каталогу: AYLCD-134 (Limited edition of 600)
Аудиокодек: FLAC (*.flac)
Тип рипа: tracks+.cue
Битрейт аудио: lossless
Продолжительность: 00:50:18
Источник (релизер): what.cd / спасибо 6060842
Наличие сканов в содержимом раздачи: нет
Треклист:
1. Bush Baby (08:55)
2. Jungle Gymnastics (07:27)
3. Long March For Frida Kahlo (11:15)
4. Big Love (05:56)
5. Two Girls (07:35)
6. Dehumanization Blues (09:08)
Доп. информация:
Musicians:
Luís Lopes - electric guitar
Rodrigo Amado - tenor sax
Aaron González - double bass
Stefan González - drums
Recorded live at Audio for The Arts, Madison, Wisconsin, USA on July 8th 2011
Luís Lopes Humanization 4tet - Live in Madison ayler.com
Luís Lopes Humanization 4tet - Live in Madison allaboutjazz.com
 
... photo ...

 
Лог создания рипа
X Lossless Decoder version 20130602 (143.2)
XLD extraction logfile from 2013-07-12 20:09:26 +0400
Luís Lopes Humanization 4tet / Live in Madison
Used drive : HL-DT-ST DVDRW GX30N (revision RP09)
Media type : Pressed CD
Ripper mode : XLD Secure Ripper
Disable audio cache : OK for the drive with a cache less than 1375KiB
Make use of C2 pointers : NO
Read offset correction : 6
Max retry count : 100
Gap status : Analyzed, Appended (except HTOA)
TOC of the extracted CD
Track | Start | Length | Start sector | End sector
---------------------------------------------------------
1 | 00:00:00 | 08:57:21 | 0 | 40295
2 | 08:57:21 | 07:29:25 | 40296 | 73995
3 | 16:26:46 | 11:15:35 | 73996 | 124655
4 | 27:42:06 | 05:58:11 | 124656 | 151516
5 | 33:40:17 | 07:37:55 | 151517 | 185846
6 | 41:17:72 | 09:08:61 | 185847 | 227007
AccurateRip Summary
Disc not found in AccurateRip DB.
All Tracks
Album gain : -8.97 dB
Peak : 0.991943
Statistics
Read error : 0
Jitter error (maybe fixed) : 0
Retry sector count : 0
Damaged sector count : 0
Track 01
Filename : /Users/anch/Music/FLAC/Luis Lopes Humanization 4tet - 2013 - Live in Madison [MP3 320]/01 - Bush Baby.mp3
/Users/anch/Music/FLAC/Luis Lopes Humanization 4tet - 2013 - Live in Madison [MP3 V0]/01 - Bush Baby.mp3
/Users/anch/Music/FLAC/Luis Lopes Humanization 4tet - 2013 - Live in Madison [FLAC]/01 - Bush Baby.flac
Pre-gap length : 00:02:00
Track gain : -8.75 dB
Peak : 0.991943
CRC32 hash (test run) : 219848F3
CRC32 hash : 219848F3
CRC32 hash (skip zero) : 425725B0
AccurateRip v1 signature : 09A2710B
AccurateRip v2 signature : FBF18DCD
->Track not present in AccurateRip database.
Statistics
Read error : 0
Jitter error (maybe fixed) : 0
Retry sector count : 0
Damaged sector count : 0
Track 02
Filename : /Users/anch/Music/FLAC/Luis Lopes Humanization 4tet - 2013 - Live in Madison [MP3 320]/02 - Jungle Gymnastics.mp3
/Users/anch/Music/FLAC/Luis Lopes Humanization 4tet - 2013 - Live in Madison [MP3 V0]/02 - Jungle Gymnastics.mp3
/Users/anch/Music/FLAC/Luis Lopes Humanization 4tet - 2013 - Live in Madison [FLAC]/02 - Jungle Gymnastics.flac
Pre-gap length : 00:02:00
Track gain : -9.44 dB
Peak : 0.991943
CRC32 hash (test run) : EEEC3D3C
CRC32 hash : EEEC3D3C
CRC32 hash (skip zero) : 172A117D
AccurateRip v1 signature : 90ACBE6B
AccurateRip v2 signature : 5CD9C447
->Track not present in AccurateRip database.
Statistics
Read error : 0
Jitter error (maybe fixed) : 0
Retry sector count : 0
Damaged sector count : 0
Track 03
Filename : /Users/anch/Music/FLAC/Luis Lopes Humanization 4tet - 2013 - Live in Madison [MP3 320]/03 - Long March for Frida Kalo.mp3
/Users/anch/Music/FLAC/Luis Lopes Humanization 4tet - 2013 - Live in Madison [MP3 V0]/03 - Long March for Frida Kalo.mp3
/Users/anch/Music/FLAC/Luis Lopes Humanization 4tet - 2013 - Live in Madison [FLAC]/03 - Long March for Frida Kalo.flac
Pre-gap length : 00:02:00
Track gain : -7.25 dB
Peak : 0.991943
CRC32 hash (test run) : 07F17E68
CRC32 hash : 07F17E68
CRC32 hash (skip zero) : C8B6ECF6
AccurateRip v1 signature : 7C692FC0
AccurateRip v2 signature : CE65AD55
->Track not present in AccurateRip database.
Statistics
Read error : 0
Jitter error (maybe fixed) : 0
Retry sector count : 0
Damaged sector count : 0
Track 04
Filename : /Users/anch/Music/FLAC/Luis Lopes Humanization 4tet - 2013 - Live in Madison [MP3 320]/04 - Big Love.mp3
/Users/anch/Music/FLAC/Luis Lopes Humanization 4tet - 2013 - Live in Madison [MP3 V0]/04 - Big Love.mp3
/Users/anch/Music/FLAC/Luis Lopes Humanization 4tet - 2013 - Live in Madison [FLAC]/04 - Big Love.flac
Track gain : -8.57 dB
Peak : 0.991943
CRC32 hash (test run) : BEEE9F04
CRC32 hash : BEEE9F04
CRC32 hash (skip zero) : BBCF2EC6
AccurateRip v1 signature : BC8DAC69
AccurateRip v2 signature : 795394D1
->Track not present in AccurateRip database.
Statistics
Read error : 0
Jitter error (maybe fixed) : 0
Retry sector count : 0
Damaged sector count : 0
Track 05
Filename : /Users/anch/Music/FLAC/Luis Lopes Humanization 4tet - 2013 - Live in Madison [MP3 320]/05 - Two Girls.mp3
/Users/anch/Music/FLAC/Luis Lopes Humanization 4tet - 2013 - Live in Madison [MP3 V0]/05 - Two Girls.mp3
/Users/anch/Music/FLAC/Luis Lopes Humanization 4tet - 2013 - Live in Madison [FLAC]/05 - Two Girls.flac
Pre-gap length : 00:02:00
Track gain : -8.62 dB
Peak : 0.991943
CRC32 hash (test run) : EC08F557
CRC32 hash : EC08F557
CRC32 hash (skip zero) : 2AF79300
AccurateRip v1 signature : FF4BC88F
AccurateRip v2 signature : 807E5D1D
->Track not present in AccurateRip database.
Statistics
Read error : 0
Jitter error (maybe fixed) : 0
Retry sector count : 0
Damaged sector count : 0
Track 06
Filename : /Users/anch/Music/FLAC/Luis Lopes Humanization 4tet - 2013 - Live in Madison [MP3 320]/06 - Dehumanization Blues.mp3
/Users/anch/Music/FLAC/Luis Lopes Humanization 4tet - 2013 - Live in Madison [MP3 V0]/06 - Dehumanization Blues.mp3
/Users/anch/Music/FLAC/Luis Lopes Humanization 4tet - 2013 - Live in Madison [FLAC]/06 - Dehumanization Blues.flac
Pre-gap length : 00:02:00
Track gain : -9.43 dB
Peak : 0.991943
CRC32 hash (test run) : 7BD09758
CRC32 hash : 7BD09758
CRC32 hash (skip zero) : CA18448C
AccurateRip v1 signature : 94347911
AccurateRip v2 signature : 17163C3D
->Track not present in AccurateRip database.
Statistics
Read error : 0
Jitter error (maybe fixed) : 0
Retry sector count : 0
Damaged sector count : 0
No errors occurred
End of status report
 
Содержание индексной карты (.CUE)
TITLE "Live in Madison"
PERFORMER "Luis Lopes Humanization 4tet"
REM GENRE "Free Jazz"
REM DATE "2013"
REM DISCID 590BD206
REM REPLAYGAIN_ALBUM_GAIN -8.97 dB
REM REPLAYGAIN_ALBUM_PEAK 0.991943
FILE "01 - Bush Baby.flac" WAVE
TRACK 01 AUDIO
TITLE "Bush Baby"
PERFORMER "Luis Lopes Humanization 4tet"
REM REPLAYGAIN_TRACK_GAIN -8.75 dB
REM REPLAYGAIN_TRACK_PEAK 0.991943
INDEX 01 00:00:00
TRACK 02 AUDIO
TITLE "Jungle Gymnastics"
PERFORMER "Luis Lopes Humanization 4tet"
REM REPLAYGAIN_TRACK_GAIN -9.44 dB
REM REPLAYGAIN_TRACK_PEAK 0.991943
INDEX 00 08:55:21
FILE "02 - Jungle Gymnastics.flac" WAVE
INDEX 01 00:00:00
TRACK 03 AUDIO
TITLE "Long March for Frida Kalo"
PERFORMER "Luis Lopes Humanization 4tet"
REM REPLAYGAIN_TRACK_GAIN -7.25 dB
REM REPLAYGAIN_TRACK_PEAK 0.991943
INDEX 00 07:27:25
FILE "03 - Long March for Frida Kalo.flac" WAVE
INDEX 01 00:00:00
FILE "04 - Big Love.flac" WAVE
TRACK 04 AUDIO
TITLE "Big Love"
PERFORMER "Luis Lopes Humanization 4tet"
REM REPLAYGAIN_TRACK_GAIN -8.57 dB
REM REPLAYGAIN_TRACK_PEAK 0.991943
INDEX 01 00:00:00
TRACK 05 AUDIO
TITLE "Two Girls"
PERFORMER "Luis Lopes Humanization 4tet"
REM REPLAYGAIN_TRACK_GAIN -8.62 dB
REM REPLAYGAIN_TRACK_PEAK 0.991943
INDEX 00 05:56:11
FILE "05 - Two Girls.flac" WAVE
INDEX 01 00:00:00
TRACK 06 AUDIO
TITLE "Dehumanization Blues"
PERFORMER "Luis Lopes Humanization 4tet"
REM REPLAYGAIN_TRACK_GAIN -9.43 dB
REM REPLAYGAIN_TRACK_PEAK 0.991943
INDEX 00 07:35:55
FILE "06 - Dehumanization Blues.flac" WAVE
INDEX 01 00:00:00
По всем вопросам пишите личное сообщение пользователю M0p94ok.
09:14
188
Нет комментариев. Ваш будет первым!