Вы используете незарегистрированную версию компонента "Вкладки"!

Поиск

(Free Improvisation, Avant-Garde Jazz, staubgold 91) [CD] Yasuaki Shimizu & David Cunningham - "One Hundred" - 2009, FLAC (tracks+.cue), lossless

(Free Improvisation, Avant-Garde Jazz, staubgold 91) [CD] Yasuaki Shimizu & David Cunningham - "One Hundred" - 2009, FLAC (tracks+.cue), lossless
Треклист:

[Yasuaki Shimizu] [&] [David Cunningham]



[CD] ["One Hundred"]

Жанр: [Free Improvisation, Avant-Garde Jazz, Experimental]
Носитель: [CD]
Страна-производитель диска: [Germany]
Recorded: [2004]
Released: [2009]
Label: [Staubgold]
Номер по каталогу: [staubgold 91]
Страна исполнителей: [Japan & Ireland]
Аудиокодек: FLAC (*.flac)
Тип рипа: [tracks+.cue]
Битрейт аудио: [lossless]
Продолжительность: [01:05:42]
Источник / релизер: [whatCD / merzbow1974]
Наличие сканов в содержимом раздачи: [нет]

[Tracklist]:
01. Cells
02. Dots
03. Doors
04. Corners
05. Traces
06. Why Me?
07. Roots
08. Lines


 
Техническая информация
 
Лог создания рипа
Exact Audio Copy V0.99 prebeta 5 from 4. May 2009
EAC extraction logfile from 14. November 2010, 3:19
Yasuaki Shimizu & David Cunningham / One Hundred
Used drive : Optiarc DVD RW AD-7240S Adapter: 4 ID: 0
Read mode : Secure
Utilize accurate stream : Yes
Defeat audio cache : Yes
Make use of C2 pointers : No
Read offset correction : 48
Overread into Lead-In and Lead-Out : No
Fill up missing offset samples with silence : Yes
Delete leading and trailing silent blocks : No
Null samples used in CRC calculations : Yes
Used interface : Installed external ASPI interface
Gap handling : Appended to previous track
Used output format : User Defined Encoder
Selected bitrate : 128 kBit/s
Quality : High
Add ID3 tag : Yes
Command line compressor : C:\Programmi\Exact Audio Copy\Flac\flac.exe
Additional command line options : -V -8 -T "artist=%a" -T "title=%t" -T "album=%g" -T "date=%y" -T "tracknumber=%n" -T "genre=%m" %s
TOC of the extracted CD
Track | Start | Length | Start sector | End sector
---------------------------------------------------------
1 | 0:00.00 | 4:54.44 | 0 | 22093
2 | 4:54.44 | 12:07.38 | 22094 | 76656
3 | 17:02.07 | 8:05.73 | 76657 | 113104
4 | 25:08.05 | 7:35.19 | 113105 | 147248
5 | 32:43.24 | 14:13.51 | 147249 | 211274
6 | 46:57.00 | 5:08.74 | 211275 | 234448
7 | 52:05.74 | 5:50.65 | 234449 | 260763
8 | 57:56.64 | 7:45.37 | 260764 | 295675
Track 1
Filename D:\Shimizu Yasuaki & Cunningham David - One Hundred - 2009\01 Cells.wav
Pre-gap length 0:00:02.00
Peak level 99.3 %
Track quality 100.0 %
Test CRC 153FB901
Copy CRC 153FB901
Track not present in AccurateRip database
Copy OK
Track 2
Filename D:\Shimizu Yasuaki & Cunningham David - One Hundred - 2009\02 Dots.wav
Peak level 65.5 %
Track quality 100.0 %
Test CRC 71137453
Copy CRC 71137453
Track not present in AccurateRip database
Copy OK
Track 3
Filename D:\Shimizu Yasuaki & Cunningham David - One Hundred - 2009\03 Doors.wav
Peak level 77.4 %
Track quality 100.0 %
Test CRC D229CCB9
Copy CRC D229CCB9
Track not present in AccurateRip database
Copy OK
Track 4
Filename D:\Shimizu Yasuaki & Cunningham David - One Hundred - 2009\04 Corners.wav
Peak level 99.3 %
Track quality 99.9 %
Test CRC 9D445EB4
Copy CRC 9D445EB4
Track not present in AccurateRip database
Copy OK
Track 5
Filename D:\Shimizu Yasuaki & Cunningham David - One Hundred - 2009\05 Traces.wav
Peak level 99.3 %
Track quality 100.0 %
Test CRC 7A267B63
Copy CRC 7A267B63
Track not present in AccurateRip database
Copy OK
Track 6
Filename D:\Shimizu Yasuaki & Cunningham David - One Hundred - 2009\06 Why me .wav
Peak level 98.7 %
Track quality 100.0 %
Test CRC C4AFCD6C
Copy CRC C4AFCD6C
Track not present in AccurateRip database
Copy OK
Track 7
Filename D:\Shimizu Yasuaki & Cunningham David - One Hundred - 2009\07 Roots.wav
Peak level 99.3 %
Track quality 100.0 %
Test CRC 8A269CF9
Copy CRC 8A269CF9
Track not present in AccurateRip database
Copy OK
Track 8
Filename D:\Shimizu Yasuaki & Cunningham David - One Hundred - 2009\08 Lines.wav
Peak level 88.6 %
Track quality 100.0 %
Test CRC 1730F2DB
Copy CRC 1730F2DB
Track not present in AccurateRip database
Copy OK
None of the tracks are present in the AccurateRip database
No errors occurred
End of status report
 
Содержание индексной карты (.CUE)
REM GENRE "Free Improvisation, Avant-Garde Jazz, Experimental"
REM DATE 2009
REM DISCID 6D0F6608
REM COMMENT "ExactAudioCopy v0.99pb5"
PERFORMER "Yasuaki Shimizu & David Cunningham"
TITLE "One Hundred"
FILE "01 Cells.wav" WAVE
TRACK 01 AUDIO
TITLE "Cells"
PERFORMER "Yasuaki Shimizu & David Cunningham"
INDEX 01 00:00:00
FILE "02 Dots.wav" WAVE
TRACK 02 AUDIO
TITLE "Dots"
PERFORMER "Yasuaki Shimizu & David Cunningham"
INDEX 01 00:00:00
FILE "03 Doors.wav" WAVE
TRACK 03 AUDIO
TITLE "Doors"
PERFORMER "Yasuaki Shimizu & David Cunningham"
INDEX 01 00:00:00
FILE "04 Corners.wav" WAVE
TRACK 04 AUDIO
TITLE "Corners"
PERFORMER "Yasuaki Shimizu & David Cunningham"
INDEX 01 00:00:00
FILE "05 Traces.wav" WAVE
TRACK 05 AUDIO
TITLE "Traces"
PERFORMER "Yasuaki Shimizu & David Cunningham"
INDEX 01 00:00:00
FILE "06 Why me .wav" WAVE
TRACK 06 AUDIO
TITLE "Why me?"
PERFORMER "Yasuaki Shimizu & David Cunningham"
INDEX 01 00:00:00
FILE "07 Roots.wav" WAVE
TRACK 07 AUDIO
TITLE "Roots"
PERFORMER "Yasuaki Shimizu & David Cunningham"
INDEX 01 00:00:00
FILE "08 Lines.wav" WAVE
TRACK 08 AUDIO
TITLE "Lines"
PERFORMER "Yasuaki Shimizu & David Cunningham"
INDEX 01 00:00:00
По всем вопросам пишите личное сообщение пользователю M0p94ok.
09:14
191
Нет комментариев. Ваш будет первым!