Вы используете незарегистрированную версию компонента "Вкладки"!

Поиск

(Avant-Garde Jazz / Contemporary Jazz) [CD] Ze Eduardo, Jack Walrath Quartet (Jesus Santandreu, Marc Miralta) - Bad Guys - 2005, FLAC (tracks+.cue), lossless

(Avant-Garde Jazz / Contemporary Jazz) [CD] Ze Eduardo, Jack Walrath Quartet (Jesus Santandreu, Marc Miralta) - Bad Guys - 2005, FLAC (tracks+.cue), lossless
Треклист:
Zé Eduardo, Jack Walrath Quartet - Bad Guys
Жанр: Avant-Garde Jazz / Contemporary Jazz
Носитель: CD
Страна-производитель диска (релиза): Portugal
Год издания: 2005
Издатель (лейбл): Clean Feed
Номер по каталогу: CF047CD
Аудиокодек: FLAC (*.flac)
Тип рипа: tracks+.cue
Битрейт аудио: lossless
Продолжительность: 00:55:53
Источник (релизер): what.cd / спасибо 6060842
Наличие сканов в содержимом раздачи: нет
Треклист:
1. Siman Spring Song (05:38)
2. Birds Fly Free (05:25)
3. Novíssims (06:57)
4. Sue's Changes (14:57)
5. Bazaar (08:36)
6. Realejo (04:05)
7. Prou (06:08)
8. Sun Sol (04:18)
Доп. информация:
Musicians:
Zé Eduardo - double bass
Jack Walrath - trumpet
Jesus Santandreu - tenor sax
Marc Miralta - drums
Zé Eduardo, Jack Walrath Quartet - Bad Guys cleanfeed-records.com
Zé Eduardo, Jack Walrath Quartet - Bad Guys allaboutjazz.com
Zé Eduardo Official Site
Jack Walrath Official Site
Jack Walrath from Wikipedia, the free encyclopedia
 
... photo ...

 
... review ...
Back in the day, American jazz musicians toured Europe as “a single,” hooking up with local rhythm sections. In the years immediately following World War II, this was a dicey proposition, as improvisers who required a flexible well-versed unit to realize their potential were often confronted with musicians with more eagerness than chops. This continued to be a problem well into the 1960s, Eric Dolphy’s recordings with Europeans being a case in point. The Swedes were wanting, while the Dutch (especially Misha Mengelberg and Han Bennink) got it. Of course, there were exceptions to the rule; Dexter Gordon’s consistently rewarding recordings with Danes like NHØP and Alex Riel being Exhibit A. It was not until the last quarter of the 20th Century, however, that it was a given that a European unit would meet all the demands placed upon them by the best American musicians.
Jack Walrath’s music demands a lot from whoever plays it. Generally, the trumpeter’s compositions reflect both an encyclopedic knowledge of the tradition and a Mingus-informed but ultimately original approach to convey protean emotional intelligence, which produce themes that can move back and forth between light and shadow, sometimes at a saunter, sometimes at a sprint. Then, there are the occasions when Walrath simply throws it down: Here’s a concept full of taxing formal elements; there’s an additional layer of quotations and allusions requiring real jazz literacy; and there’s multiple complex emotions that must be precisely projected, which can be spliced together at a jolting pace. Deal with it.
There is a lot to deal with on this encounter between Walrath and three exceptional Iberian musicians: tenor saxophonist Jesus Santandreu and drummer Marc Miralta , both of whom are Spanish, and the Portuguese bassist Ze Eduardo. Beyond the numerous merits of the music, this album is a needed reminder that Walrath has fallen into the void the US jazz industry, knowingly or not, creates for middle-aged musicians. It was only a decade ago that the trumpeter was the subject of thoughtful, glowing feature articles in the glossy US jazz magazines, pegged to major label CD releases (or, more precisely, the advertising for said CDs). The irony is that artists tend to fall off the industry radar as their art is ripening. That is certainly the case with Walrath, whose playing and writing here is as erudite, soulful and laugh-out-loud funny as ever.
Because Walrath’s music is predicated on technical brinkmanship, conceptual anomalies, and general unpredictability, his cohorts largely determine whether a performance is incandescent or inchoate. Eduardo, Santandreu and Miralta prove to be Hard Corps, to pun the name of a previous Walrath unit. Their rhythmic elasticity (which is not just the ability to stretch, but also to snap tautly back into place at the exact right moment), and their finesse in extrapolating the material to their own creative ends, compares well with the illustrious New York musicians who passed through Walrath’s band.
Two pieces in particular flesh out the refined rapport between Walrath and the Portuguese. The first is “Simian Spring Song,’ which is loaded with iridescent allusions to Monk compositions, requiring another trait Walrath has succinctly articulated: Hip Gnosis. In terms of extrapolating Monk, the performance must encapsulate the spiritual knowledge of the prankster, the cosmic Ha! that is never far from the surface of the pianist’s compositions. The quartet succeeds on that daunting criterion. The other is “Sue’s Changes,” one of Mingus’ great latter pieces. Arguably, the subject of Mingus’ music was passion, reflecting his pained insights into how passion is fanned and quenched. In contrast to other works, where Mingus drained the swamp of his psyche, “Sue’s Changes” is loving portraiture, but still requires finely calibrated changes in tempo, feel and attack. The quartet’s reading is nothing less than authoritative.
The surfacing of one of jazz’s more woefully undervalued artists; the coming of age, jazzwise, of Iberian musicians; the reassertion of universal truths: that’s a lot for a single CD. Deal with it.
Bill Shoemaker ~ cleanfeed-records.com
 
Лог создания рипа
X Lossless Decoder version 20121222 (142.2)
XLD extraction logfile from 2013-01-27 13:24:44 +0300
Zé Eduardo & Jack Walrath Quartet / Bad Guys
Used drive : MATSHITA CD-RW CW-8221 (revision GA0K)
Media type : Pressed CD
Ripper mode : XLD Secure Ripper
Disable audio cache : OK for the drive with a cache less than 1375KiB
Make use of C2 pointers : NO
Read offset correction : 102
Max retry count : 20
Gap status : Analyzed, Appended (except HTOA)
TOC of the extracted CD
Track | Start | Length | Start sector | End sector
---------------------------------------------------------
1 | 00:00:00 | 05:38:60 | 0 | 25409
2 | 05:38:60 | 05:25:04 | 25410 | 49788
3 | 11:03:64 | 06:57:40 | 49789 | 81103
4 | 18:01:29 | 14:57:50 | 81104 | 148428
5 | 32:59:04 | 08:36:11 | 148429 | 187139
6 | 41:35:15 | 04:05:70 | 187140 | 205584
7 | 45:41:10 | 06:08:16 | 205585 | 233200
8 | 51:49:26 | 04:18:35 | 233201 | 252585
AccurateRip Summary
Disc not found in AccurateRip DB.
All Tracks
Album gain : -3.89 dB
Peak : 0.988556
Statistics
Read error : 0
Jitter error (maybe fixed) : 0
Retry sector count : 0
Damaged sector count : 0
Track 01
Filename : /My/Music/_FLAC/Zé Eduardo & Jack Walrath Quartet - 2005 - Bad Guys [FLAC]/01/01 - Siman Spring Song.flac
/My/Music/_FLAC/Zé Eduardo & Jack Walrath Quartet - 2005 - Bad Guys [MP3 320]/01/01 - Siman Spring Song.mp3
/My/Music/_FLAC/Zé Eduardo & Jack Walrath Quartet - 2005 - Bad Guys [MP3 V0]/01/01 - Siman Spring Song.mp3
Pre-gap length : 00:02:00
Track gain : -4.31 dB
Peak : 0.988556
CRC32 hash (test run) : 4300E5E0
CRC32 hash : 4300E5E0
CRC32 hash (skip zero) : 9BAF3BBB
AccurateRip v1 signature : 9269ABB7
AccurateRip v2 signature : D8AA5218
->Track not present in AccurateRip database.
Statistics
Read error : 0
Jitter error (maybe fixed) : 0
Retry sector count : 0
Damaged sector count : 0
Track 02
Filename : /My/Music/_FLAC/Zé Eduardo & Jack Walrath Quartet - 2005 - Bad Guys [FLAC]/01/02 - Birds Fly Free.flac
/My/Music/_FLAC/Zé Eduardo & Jack Walrath Quartet - 2005 - Bad Guys [MP3 320]/01/02 - Birds Fly Free.mp3
/My/Music/_FLAC/Zé Eduardo & Jack Walrath Quartet - 2005 - Bad Guys [MP3 V0]/01/02 - Birds Fly Free.mp3
Pre-gap length : 00:02:00
Track gain : -4.84 dB
Peak : 0.988556
CRC32 hash (test run) : 47270E0E
CRC32 hash : 47270E0E
CRC32 hash (skip zero) : 5352DE31
AccurateRip v1 signature : B5EC9294
AccurateRip v2 signature : FB90F48C
->Track not present in AccurateRip database.
Statistics
Read error : 0
Jitter error (maybe fixed) : 0
Retry sector count : 0
Damaged sector count : 0
Track 03
Filename : /My/Music/_FLAC/Zé Eduardo & Jack Walrath Quartet - 2005 - Bad Guys [FLAC]/01/03 - Novíssims.flac
/My/Music/_FLAC/Zé Eduardo & Jack Walrath Quartet - 2005 - Bad Guys [MP3 320]/01/03 - Novíssims.mp3
/My/Music/_FLAC/Zé Eduardo & Jack Walrath Quartet - 2005 - Bad Guys [MP3 V0]/01/03 - Novíssims.mp3
Pre-gap length : 00:02:00
Track gain : 0.28 dB
Peak : 0.988525
CRC32 hash (test run) : ECA39886
CRC32 hash : ECA39886
CRC32 hash (skip zero) : 6F2C15A2
AccurateRip v1 signature : E2F05D08
AccurateRip v2 signature : 451F47CA
->Track not present in AccurateRip database.
Statistics
Read error : 0
Jitter error (maybe fixed) : 0
Retry sector count : 0
Damaged sector count : 0
Track 04
Filename : /My/Music/_FLAC/Zé Eduardo & Jack Walrath Quartet - 2005 - Bad Guys [FLAC]/01/04 - Sue's Changes.flac
/My/Music/_FLAC/Zé Eduardo & Jack Walrath Quartet - 2005 - Bad Guys [MP3 320]/01/04 - Sue's Changes.mp3
/My/Music/_FLAC/Zé Eduardo & Jack Walrath Quartet - 2005 - Bad Guys [MP3 V0]/01/04 - Sue's Changes.mp3
Pre-gap length : 00:02:00
Track gain : -2.69 dB
Peak : 0.988525
CRC32 hash (test run) : 06538F0B
CRC32 hash : 06538F0B
CRC32 hash (skip zero) : B2A60848
AccurateRip v1 signature : 2788B8AB
AccurateRip v2 signature : 0DE9B2E4
->Track not present in AccurateRip database.
Statistics
Read error : 0
Jitter error (maybe fixed) : 0
Retry sector count : 0
Damaged sector count : 0
Track 05
Filename : /My/Music/_FLAC/Zé Eduardo & Jack Walrath Quartet - 2005 - Bad Guys [FLAC]/01/05 - Bazaar.flac
/My/Music/_FLAC/Zé Eduardo & Jack Walrath Quartet - 2005 - Bad Guys [MP3 320]/01/05 - Bazaar.mp3
/My/Music/_FLAC/Zé Eduardo & Jack Walrath Quartet - 2005 - Bad Guys [MP3 V0]/01/05 - Bazaar.mp3
Pre-gap length : 00:02:00
Track gain : -5.55 dB
Peak : 0.988556
CRC32 hash (test run) : DC8BD320
CRC32 hash : DC8BD320
CRC32 hash (skip zero) : 65CCD127
AccurateRip v1 signature : 76A3326A
AccurateRip v2 signature : 09DA1595
->Track not present in AccurateRip database.
Statistics
Read error : 0
Jitter error (maybe fixed) : 0
Retry sector count : 0
Damaged sector count : 0
Track 06
Filename : /My/Music/_FLAC/Zé Eduardo & Jack Walrath Quartet - 2005 - Bad Guys [FLAC]/01/06 - Realejo.flac
/My/Music/_FLAC/Zé Eduardo & Jack Walrath Quartet - 2005 - Bad Guys [MP3 320]/01/06 - Realejo.mp3
/My/Music/_FLAC/Zé Eduardo & Jack Walrath Quartet - 2005 - Bad Guys [MP3 V0]/01/06 - Realejo.mp3
Pre-gap length : 00:02:00
Track gain : -0.39 dB
Peak : 0.988525
CRC32 hash (test run) : 2876CA41
CRC32 hash : 2876CA41
CRC32 hash (skip zero) : F7730A57
AccurateRip v1 signature : 7D8EA644
AccurateRip v2 signature : DAE6A3FB
->Track not present in AccurateRip database.
Statistics
Read error : 0
Jitter error (maybe fixed) : 0
Retry sector count : 0
Damaged sector count : 0
Track 07
Filename : /My/Music/_FLAC/Zé Eduardo & Jack Walrath Quartet - 2005 - Bad Guys [FLAC]/01/07 - Prou.flac
/My/Music/_FLAC/Zé Eduardo & Jack Walrath Quartet - 2005 - Bad Guys [MP3 320]/01/07 - Prou.mp3
/My/Music/_FLAC/Zé Eduardo & Jack Walrath Quartet - 2005 - Bad Guys [MP3 V0]/01/07 - Prou.mp3
Pre-gap length : 00:02:00
Track gain : -4.08 dB
Peak : 0.988556
CRC32 hash (test run) : 12B6B5DD
CRC32 hash : 12B6B5DD
CRC32 hash (skip zero) : 430AC9CE
AccurateRip v1 signature : 4DB89651
AccurateRip v2 signature : 6085C0A7
->Track not present in AccurateRip database.
Statistics
Read error : 0
Jitter error (maybe fixed) : 0
Retry sector count : 0
Damaged sector count : 0
Track 08
Filename : /My/Music/_FLAC/Zé Eduardo & Jack Walrath Quartet - 2005 - Bad Guys [FLAC]/01/08 - Sun Sol.flac
/My/Music/_FLAC/Zé Eduardo & Jack Walrath Quartet - 2005 - Bad Guys [MP3 320]/01/08 - Sun Sol.mp3
/My/Music/_FLAC/Zé Eduardo & Jack Walrath Quartet - 2005 - Bad Guys [MP3 V0]/01/08 - Sun Sol.mp3
Pre-gap length : 00:02:00
Track gain : -2.09 dB
Peak : 0.988556
CRC32 hash (test run) : 255DC813
CRC32 hash : 255DC813
CRC32 hash (skip zero) : C55556FF
AccurateRip v1 signature : 8BB06E36
AccurateRip v2 signature : 2AE26724
->Track not present in AccurateRip database.
Statistics
Read error : 0
Jitter error (maybe fixed) : 0
Retry sector count : 0
Damaged sector count : 0
No errors occurred
End of status report
 
Содержание индексной карты (.CUE)
TITLE "Bad Guys"
PERFORMER "Ze Eduardo & Jack Walrath Quartet"
REM GENRE "Free Jazz"
REM DATE "2005"
REM DISCID 650D2708
REM REPLAYGAIN_ALBUM_GAIN -3.89 dB
REM REPLAYGAIN_ALBUM_PEAK 0.988556
FILE "01 - Siman Spring Song.flac" WAVE
TRACK 01 AUDIO
TITLE "Siman Spring Song"
PERFORMER "Ze Eduardo & Jack Walrath Quartet"
REM REPLAYGAIN_TRACK_GAIN -4.31 dB
REM REPLAYGAIN_TRACK_PEAK 0.988556
INDEX 01 00:00:00
TRACK 02 AUDIO
TITLE "Birds Fly Free"
PERFORMER "Ze Eduardo & Jack Walrath Quartet"
REM REPLAYGAIN_TRACK_GAIN -4.84 dB
REM REPLAYGAIN_TRACK_PEAK 0.988556
INDEX 00 05:36:60
FILE "02 - Birds Fly Free.flac" WAVE
INDEX 01 00:00:00
TRACK 03 AUDIO
TITLE "Novíssims"
PERFORMER "Ze Eduardo & Jack Walrath Quartet"
REM REPLAYGAIN_TRACK_GAIN 0.28 dB
REM REPLAYGAIN_TRACK_PEAK 0.988525
INDEX 00 05:23:04
FILE "03 - Novissims.flac" WAVE
INDEX 01 00:00:00
TRACK 04 AUDIO
TITLE "Sue's Changes"
PERFORMER "Ze Eduardo & Jack Walrath Quartet"
REM REPLAYGAIN_TRACK_GAIN -2.69 dB
REM REPLAYGAIN_TRACK_PEAK 0.988525
INDEX 00 06:55:40
FILE "04 - Sue's Changes.flac" WAVE
INDEX 01 00:00:00
TRACK 05 AUDIO
TITLE "Bazaar"
PERFORMER "Ze Eduardo & Jack Walrath Quartet"
REM REPLAYGAIN_TRACK_GAIN -5.55 dB
REM REPLAYGAIN_TRACK_PEAK 0.988556
INDEX 00 14:55:50
FILE "05 - Bazaar.flac" WAVE
INDEX 01 00:00:00
TRACK 06 AUDIO
TITLE "Realejo"
PERFORMER "Ze Eduardo & Jack Walrath Quartet"
REM REPLAYGAIN_TRACK_GAIN -0.39 dB
REM REPLAYGAIN_TRACK_PEAK 0.988525
INDEX 00 08:34:11
FILE "06 - Realejo.flac" WAVE
INDEX 01 00:00:00
TRACK 07 AUDIO
TITLE "Prou"
PERFORMER "Ze Eduardo & Jack Walrath Quartet"
REM REPLAYGAIN_TRACK_GAIN -4.08 dB
REM REPLAYGAIN_TRACK_PEAK 0.988556
INDEX 00 04:03:70
FILE "07 - Prou.flac" WAVE
INDEX 01 00:00:00
TRACK 08 AUDIO
TITLE "Sun Sol"
PERFORMER "Ze Eduardo & Jack Walrath Quartet"
REM REPLAYGAIN_TRACK_GAIN -2.09 dB
REM REPLAYGAIN_TRACK_PEAK 0.988556
INDEX 00 06:06:16
FILE "08 - Sun Sol.flac" WAVE
INDEX 01 00:00:00
По всем вопросам пишите личное сообщение пользователю M0p94ok.
09:12
209
Нет комментариев. Ваш будет первым!