Вы используете незарегистрированную версию компонента "Вкладки"!

Поиск

(Avant-Garde Jazz, Jazz-Funk) Jacob Fred Jazz Odyssey - Slow Breath, Silent Mind - 2003, FLAC (tracks+.cue), lossless

(Avant-Garde Jazz, Jazz-Funk) Jacob Fred Jazz Odyssey - Slow Breath, Silent Mind - 2003, FLAC (tracks+.cue), lossless
Треклист:
Jacob Fred Jazz Odyssey - Slow Breath, Silent Mind
Жанр: Avant-Garde Jazz, Jazz-Funk
Год издания: 2003
Издатель (лейбл): Kufala Recordings
Номер по каталогу: KUF 0059
Страна: США
Аудиокодек: FLAC (*.flac)
Тип рипа: tracks+.cue
Битрейт аудио: lossless
Продолжительность: 69:53
Источник (релизер): o0ngawa (what)
Наличие сканов в содержимом раздачи: нет
Треклист:
01. In a Sentimental Mood (7:12)
02. Off Minor (4:26)
03. Central Park West (6:17)
04. Nibbles (4:59)
05. Up Jumped Spring (5:24)
06. Hover (6:00)
07. Alone Together (8:03)
08. Improvisation for STS9 (5:27)
09. Fall (6:48)
10. Slow Breath, Silent Mind (8:49)
11. Prince of Darkness (6:28)
Состав:
Reed Mathis - acoustic bass guitar with octave effects, cello
Jason Smart - drums
Brian Haas - piano
Recorded live on tour October-November 2003.
 
Лог создания рипа
Exact Audio Copy V1.0 beta 3 from 29. August 2011
EAC extraction logfile from 23. December 2012, 18:36
Jacob Fred Jazz Odyssey / Slow Breath Silent Mind
Used drive : LITE-ON DVDRW LH-20A1L Adapter: 4 ID: 0
Read mode : Secure
Utilize accurate stream : Yes
Defeat audio cache : Yes
Make use of C2 pointers : No
Read offset correction : 6
Overread into Lead-In and Lead-Out : No
Fill up missing offset samples with silence : Yes
Delete leading and trailing silent blocks : No
Null samples used in CRC calculations : Yes
Used interface : Native Win32 interface for Win NT & 2000
Gap handling : Appended to previous track
Used output format : User Defined Encoder
Selected bitrate : 1024 kBit/s
Quality : High
Add ID3 tag : No
Command line compressor : C:\Program Files (x86)\Exact Audio Copy\FLAC\FLAC.EXE
Additional command line options : -6 -V -T "ARTIST=%artist%" -T "TITLE=%title%" -T "ALBUM=%albumtitle%" -T "DATE=%year%" -T "TRACKNUMBER=%tracknr%" -T "GENRE=%genre%" -T "COMMENT=%comment%" -T "BAND=%albuminterpret%" -T "ALBUMARTIST=%albuminterpret%" -T "COMPOSER=%composer%" %haslyrics%--tag-from-file=LYRICS="%lyricsfile%"%haslyrics% -T "DISCNUMBER=%cdnumber%" -T "TOTALDISCS=%totalcds%" -T "TOTALTRACKS=%numtracks%" %hascover%--picture="%coverfile%"%hascover% %source% -o %dest%
TOC of the extracted CD
Track | Start | Length | Start sector | End sector
---------------------------------------------------------
1 | 0:00.00 | 7:12.06 | 0 | 32405
2 | 7:12.06 | 4:26.08 | 32406 | 52363
3 | 11:38.14 | 6:17.25 | 52364 | 80663
4 | 17:55.39 | 4:59.52 | 80664 | 103140
5 | 22:55.16 | 5:24.62 | 103141 | 127502
6 | 28:20.03 | 6:00.34 | 127503 | 154536
7 | 34:20.37 | 8:03.67 | 154537 | 190828
8 | 42:24.29 | 5:27.33 | 190829 | 215386
9 | 47:51.62 | 6:48.52 | 215387 | 246038
10 | 54:40.39 | 8:49.38 | 246039 | 285751
11 | 63:30.02 | 6:28.49 | 285752 | 314900
Track 1
Filename C:\EAC rips\Jacob Fred Jazz Odyssey - Slow Breath Silent Mind (2003) [FLAC]\01 - In A Sentimental Mood.wav
Pre-gap length 0:00:02.00
Peak level 79.5 %
Extraction speed 2.2 X
Track quality 100.0 %
Test CRC 6CF04A93
Copy CRC 6CF04A93
Accurately ripped (confidence 1) [D8DAAC2C] (AR v1)
Copy OK
Track 2
Filename C:\EAC rips\Jacob Fred Jazz Odyssey - Slow Breath Silent Mind (2003) [FLAC]\02 - Off Minor.wav
Pre-gap length 0:00:02.00
Peak level 99.9 %
Extraction speed 2.3 X
Track quality 100.0 %
Test CRC E7DE43F1
Copy CRC E7DE43F1
Accurately ripped (confidence 1) [869F3699] (AR v1)
Copy OK
Track 3
Filename C:\EAC rips\Jacob Fred Jazz Odyssey - Slow Breath Silent Mind (2003) [FLAC]\03 - Central Park West.wav
Pre-gap length 0:00:02.00
Peak level 99.8 %
Extraction speed 2.7 X
Track quality 100.0 %
Test CRC B6577EE3
Copy CRC B6577EE3
Accurately ripped (confidence 1) [9DC576F6] (AR v1)
Copy OK
Track 4
Filename C:\EAC rips\Jacob Fred Jazz Odyssey - Slow Breath Silent Mind (2003) [FLAC]\04 - Nibbles.wav
Peak level 99.9 %
Extraction speed 2.8 X
Track quality 100.0 %
Test CRC 7F330E02
Copy CRC 7F330E02
Accurately ripped (confidence 1) [F60EEA1A] (AR v1)
Copy OK
Track 5
Filename C:\EAC rips\Jacob Fred Jazz Odyssey - Slow Breath Silent Mind (2003) [FLAC]\05 - Up Jumped Spring.wav
Peak level 100.0 %
Extraction speed 3.0 X
Track quality 100.0 %
Test CRC 5180A816
Copy CRC 5180A816
Accurately ripped (confidence 1) [6DCC2014] (AR v1)
Copy OK
Track 6
Filename C:\EAC rips\Jacob Fred Jazz Odyssey - Slow Breath Silent Mind (2003) [FLAC]\06 - Hover.wav
Peak level 99.9 %
Extraction speed 3.2 X
Track quality 100.0 %
Test CRC EAA7930B
Copy CRC EAA7930B
Accurately ripped (confidence 1) [811119BE] (AR v1)
Copy OK
Track 7
Filename C:\EAC rips\Jacob Fred Jazz Odyssey - Slow Breath Silent Mind (2003) [FLAC]\07 - Alone Together.wav
Peak level 100.0 %
Extraction speed 3.5 X
Track quality 100.0 %
Test CRC CE78BDDE
Copy CRC CE78BDDE
Accurately ripped (confidence 1) [3E3B9A30] (AR v1)
Copy OK
Track 8
Filename C:\EAC rips\Jacob Fred Jazz Odyssey - Slow Breath Silent Mind (2003) [FLAC]\08 - Improvisation For STS9.wav
Peak level 99.9 %
Extraction speed 3.6 X
Track quality 100.0 %
Test CRC 1ED7009E
Copy CRC 1ED7009E
Accurately ripped (confidence 1) [74E1E095] (AR v1)
Copy OK
Track 9
Filename C:\EAC rips\Jacob Fred Jazz Odyssey - Slow Breath Silent Mind (2003) [FLAC]\09 - Fall.wav
Peak level 100.0 %
Extraction speed 3.2 X
Track quality 99.9 %
Test CRC B80EBBBB
Copy CRC B80EBBBB
Accurately ripped (confidence 1) [D13A3D06] (AR v1)
Copy OK
Track 10
Filename C:\EAC rips\Jacob Fred Jazz Odyssey - Slow Breath Silent Mind (2003) [FLAC]\10 - Slow Breath Silent Mind.wav
Peak level 99.8 %
Extraction speed 3.4 X
Track quality 99.9 %
Test CRC 3D34A4FD
Copy CRC 3D34A4FD
Accurately ripped (confidence 1) [B574426A] (AR v1)
Copy OK
Track 11
Filename C:\EAC rips\Jacob Fred Jazz Odyssey - Slow Breath Silent Mind (2003) [FLAC]\11 - Prince Of Darkness.wav
Peak level 99.9 %
Extraction speed 4.2 X
Track quality 100.0 %
Test CRC 8FD5B2F1
Copy CRC 8FD5B2F1
Accurately ripped (confidence 1) [13C4A894] (AR v1)
Copy OK
All tracks accurately ripped
No errors occurred
End of status report
---- CUETools DB Plugin V2.1.4
[CTDB TOCID: lh2kzgK.ZwlLkpzBKZrpVHo01Ao-] disk not present in database
Submit result: lh2kzgK.ZwlLkpzBKZrpVHo01Ao- has been uploaded
==== Log checksum 23CAAF2A0A5F6A56C8BA98C0D9579533B56B4ADFB1A451C07897689FA8B727E2 ====
 
Содержание индексной карты (.CUE)
REM GENRE Jazz+Funk
REM DATE 2003
REM DISCID 8B10660B
REM COMMENT "ExactAudioCopy v1.0b3"
PERFORMER "Jacob Fred Jazz Odyssey"
TITLE "Slow Breath Silent Mind"
FILE "01 - In A Sentimental Mood.wav" WAVE
TRACK 01 AUDIO
TITLE "In A Sentimental Mood"
PERFORMER "Jacob Fred Jazz Odyssey"
INDEX 01 00:00:00
TRACK 02 AUDIO
TITLE "Off Minor"
PERFORMER "Jacob Fred Jazz Odyssey"
INDEX 00 07:10:06
FILE "02 - Off Minor.wav" WAVE
INDEX 01 00:00:00
TRACK 03 AUDIO
TITLE "Central Park West"
PERFORMER "Jacob Fred Jazz Odyssey"
INDEX 00 04:24:08
FILE "03 - Central Park West.wav" WAVE
INDEX 01 00:00:00
FILE "04 - Nibbles.wav" WAVE
TRACK 04 AUDIO
TITLE "Nibbles"
PERFORMER "Jacob Fred Jazz Odyssey"
INDEX 01 00:00:00
FILE "05 - Up Jumped Spring.wav" WAVE
TRACK 05 AUDIO
TITLE "Up Jumped Spring"
PERFORMER "Jacob Fred Jazz Odyssey"
INDEX 01 00:00:00
FILE "06 - Hover.wav" WAVE
TRACK 06 AUDIO
TITLE "Hover"
PERFORMER "Jacob Fred Jazz Odyssey"
INDEX 01 00:00:00
FILE "07 - Alone Together.wav" WAVE
TRACK 07 AUDIO
TITLE "Alone Together"
PERFORMER "Jacob Fred Jazz Odyssey"
INDEX 01 00:00:00
FILE "08 - Improvisation For STS9.wav" WAVE
TRACK 08 AUDIO
TITLE "Improvisation For STS9"
PERFORMER "Jacob Fred Jazz Odyssey"
INDEX 01 00:00:00
FILE "09 - Fall.wav" WAVE
TRACK 09 AUDIO
TITLE "Fall"
PERFORMER "Jacob Fred Jazz Odyssey"
INDEX 01 00:00:00
FILE "10 - Slow Breath Silent Mind.wav" WAVE
TRACK 10 AUDIO
TITLE "Slow Breath Silent Mind"
PERFORMER "Jacob Fred Jazz Odyssey"
INDEX 01 00:00:00
FILE "11 - Prince Of Darkness.wav" WAVE
TRACK 11 AUDIO
TITLE "Prince Of Darkness"
PERFORMER "Jacob Fred Jazz Odyssey"
INDEX 01 00:00:00
 
Отчет CUETools
[CUETools log; Date: 26.12.2012 12:05:50; Version: 2.1.4]
[CTDB TOCID: lh2kzgK.ZwlLkpzBKZrpVHo01Ao-] found.
Track | CTDB Status
1 | (1/1) Accurately ripped
2 | (1/1) Accurately ripped
3 | (1/1) Accurately ripped
4 | (1/1) Accurately ripped
5 | (1/1) Accurately ripped
6 | (1/1) Accurately ripped
7 | (1/1) Accurately ripped
8 | (1/1) Accurately ripped
9 | (1/1) Accurately ripped
10 | (1/1) Accurately ripped
11 | (1/1) Accurately ripped
[AccurateRip ID: 001b8503-00f06588-8b10660b] found.
Track [ CRC | V2 ] Status
01 [d8daac2c|49fc726e] (1+0/1) Accurately ripped
02 [869f3699|cf0590d8] (1+0/1) Accurately ripped
03 [9dc576f6|832e794c] (1+0/1) Accurately ripped
04 [f60eea1a|cc29da1d] (1+0/1) Accurately ripped
05 [6dcc2014|01e75d4b] (1+0/1) Accurately ripped
06 [811119be|5097dc64] (1+0/1) Accurately ripped
07 [3e3b9a30|fe00475b] (1+0/1) Accurately ripped
08 [74e1e095|1f6783ac] (1+0/1) Accurately ripped
09 [d13a3d06|6767ede4] (1+0/1) Accurately ripped
10 [b574426a|bfb66d0d] (1+0/1) Accurately ripped
11 [13c4a894|f78c2945] (1+0/1) Accurately ripped
Track Peak [ CRC32 ] [W/O NULL] [ LOG ]
-- 100,0 [2712AD36] [87FEE419]
01 79,5 [6CF04A93] [C9263E86] CRC32
02 99,9 [E7DE43F1] [3FC3B32E] CRC32
03 99,8 [B6577EE3] [028942E1] CRC32
04 99,9 [7F330E02] [0258C5CE] CRC32
05 100,0 [5180A816] [E580A908] CRC32
06 99,9 [EAA7930B] [0D738F92] CRC32
07 100,0 [CE78BDDE] [D4F78235] CRC32
08 99,9 [1ED7009E] [3C27D06C] CRC32
09 100,0 [B80EBBBB] [CB8BBB1B] CRC32
10 99,8 [3D34A4FD] [6C9517EC] CRC32
11 99,9 [8FD5B2F1] [750A6E36] CRC32
 
Об альбоме (сборнике)
Jacob Fred Jazz Odyssey tiptoes along the fine lines separating rock and jazz and all the various sub- and sub-sub- genres of the two. There’s a salient jam band ethos in their music, right next to the influences of classic and psychedelic rock, hard bop and experimental/avant jazz. This broad source of inspiration has won them a following from the university party scene to somewhat fussier critical circles.
Culled from recorded performances during a two-month U.S. tour in autumn 2003, Slow Breath, Silent Mind sees JFJO—bassist Reed Mathis, drummer Jason Smart, pianist Brian Haas—taking up more standards and covers than their audience might have expected. Seven of these eleven tracks are by composers who have, in one way or another, shaped JFJO’s sound: Broadway lyricist Howard Deitz, Freddie Hubbard, Wayne Shorter, Duke, Trane and Monk. The only songwriters missing from this list are Trey Anastasio, Dave Matthews and Jerry Garcia.
The good news is that the non-original charts on Slow Breath, Silent Mind are on the whole well executed, confirming JFJO’s apparent assertion that they’re able to give a tuneful, intelligent treatment to the songs of others. The bad news is that the standards and covers make the original tracks sound terribly bland in comparison. Place a song like the opener—a bluesy rendition of Duke Ellington’s “In a Sentimental Mood,” full of the growls and shrieks of Mathis’ octave-induced acoustic bass—next to Haas’ repetitious, Phish-like “Nibbles,” and the contrast in quality immediately becomes apparent. The five-and-a-half ethereally New Age minutes of the trio’s “Improvisation for STS9” (Sound Tribe Sector 9 is a kindred band) are just plain irritating. The title track, written by Smart, is a bit meatier, but still sounds as generic as a score for an unwritten film.
Like so much of Béla Fleck’s output, Slow Breath, Silent Mind has an indisputable crossover appeal. Festival-hoppers will probably adore it. Unlike Fleck, the gents in JFJO don’t seem to be doing anything new here compositionally or sonically—unless you count Mathis’ attempts to make his acoustic bass sound like an electric guitar as a breakthrough of some sort. The covers of Hubbard’s “Up Jumped Spring” (spry, cleverly tongue-in-cheek) and Trane’s “Central Park West” (sombre, reverential, aching) are worth hearing, but there are still many, many discs more worthy of your ear.
Any questions -> support@pro-jazz.com. По всем вопросам пишите -> support@pro-jazz.com
06:46
147
Нет комментариев. Ваш будет первым!