Вы используете незарегистрированную версию компонента "Вкладки"!

Поиск

(Avant-Garde Jazz, Free Jazz) Medeski, Martin & Wood - Farmer's Reserve - 1997, FLAC (tracks+.cue), lossless

(Avant-Garde Jazz, Free Jazz) Medeski, Martin & Wood - Farmer's Reserve - 1997, FLAC (tracks+.cue), lossless
Треклист:
Medeski, Martin & Wood - Farmer's Reserve
Жанр: Avant-Garde Jazz, Free Jazz
Год издания: 1997
Издатель (лейбл): Indirecto
Номер по каталогу: INDI01
Страна: США
Аудиокодек: FLAC (*.flac)
Тип рипа: tracks+.cue
Битрейт аудио: lossless
Продолжительность: 57:39
Источник (релизер): o0ngawa (what)
Наличие сканов в содержимом раздачи: нет
Треклист:
01. Part I (4:02)
02. Part I (2:56)
03. Part I (4:23)
04. Part I (3:47)
05. Part II (6:35)
06. Part II (3:23)
07. Part II (2:35)
08. Part II (7:11)
09. Part III (3:08)
10. Part III (4:27)
11. Epilogue (15:16)
Состав:
John Medeski - keyboards
Billy Martin - drums, percussion
Chris Wood - bass
Recorded at The Shack, Hawaii on February 11, 1997.
 
Лог создания рипа
Exact Audio Copy V1.0 beta 3 from 29. August 2011
EAC extraction logfile from 23. December 2012, 16:05
Medeski, Martin & Wood / Farmers Reserve
Used drive : LITE-ON DVDRW LH-20A1L Adapter: 4 ID: 0
Read mode : Secure
Utilize accurate stream : Yes
Defeat audio cache : Yes
Make use of C2 pointers : No
Read offset correction : 6
Overread into Lead-In and Lead-Out : No
Fill up missing offset samples with silence : Yes
Delete leading and trailing silent blocks : No
Null samples used in CRC calculations : Yes
Used interface : Native Win32 interface for Win NT & 2000
Gap handling : Appended to previous track
Used output format : User Defined Encoder
Selected bitrate : 1024 kBit/s
Quality : High
Add ID3 tag : No
Command line compressor : C:\Program Files (x86)\Exact Audio Copy\FLAC\FLAC.EXE
Additional command line options : -6 -V -T "ARTIST=%artist%" -T "TITLE=%title%" -T "ALBUM=%albumtitle%" -T "DATE=%year%" -T "TRACKNUMBER=%tracknr%" -T "GENRE=%genre%" -T "COMMENT=%comment%" -T "BAND=%albuminterpret%" -T "ALBUMARTIST=%albuminterpret%" -T "COMPOSER=%composer%" %haslyrics%--tag-from-file=LYRICS="%lyricsfile%"%haslyrics% -T "DISCNUMBER=%cdnumber%" -T "TOTALDISCS=%totalcds%" -T "TOTALTRACKS=%numtracks%" %hascover%--picture="%coverfile%"%hascover% %source% -o %dest%
TOC of the extracted CD
Track | Start | Length | Start sector | End sector
---------------------------------------------------------
1 | 0:00.00 | 4:01.61 | 0 | 18135
2 | 4:01.61 | 2:56.00 | 18136 | 31335
3 | 6:57.61 | 4:23.21 | 31336 | 51081
4 | 11:21.07 | 3:46.51 | 51082 | 68082
5 | 15:07.58 | 6:35.17 | 68083 | 97724
6 | 21:43.00 | 3:23.37 | 97725 | 112986
7 | 25:06.37 | 2:34.71 | 112987 | 124607
8 | 27:41.33 | 7:10.38 | 124608 | 156895
9 | 34:51.71 | 3:08.00 | 156896 | 170995
10 | 37:59.71 | 4:27.18 | 170996 | 191038
11 | 42:27.14 | 15:16.30 | 191039 | 259768
Track 1
Filename C:\EAC rips\Medeski, Martin & Wood - Farmers Reserve (1997) [FLAC]\01 - Part I.wav
Pre-gap length 0:00:02.00
Peak level 87.6 %
Extraction speed 1.8 X
Track quality 100.0 %
Test CRC FC2C6F81
Copy CRC FC2C6F81
Accurately ripped (confidence 2) [C66E5AE3] (AR v1)
Copy OK
Track 2
Filename C:\EAC rips\Medeski, Martin & Wood - Farmers Reserve (1997) [FLAC]\02 - Part I.wav
Peak level 60.7 %
Extraction speed 1.9 X
Track quality 100.0 %
Test CRC F2FB1834
Copy CRC F2FB1834
Accurately ripped (confidence 2) [E8C0902A] (AR v1)
Copy OK
Track 3
Filename C:\EAC rips\Medeski, Martin & Wood - Farmers Reserve (1997) [FLAC]\03 - Part I.wav
Peak level 86.1 %
Extraction speed 1.9 X
Track quality 99.9 %
Test CRC 43A75CA1
Copy CRC 43A75CA1
Accurately ripped (confidence 2) [21787DE8] (AR v1)
Copy OK
Track 4
Filename C:\EAC rips\Medeski, Martin & Wood - Farmers Reserve (1997) [FLAC]\04 - Part I.wav
Peak level 70.9 %
Extraction speed 2.3 X
Track quality 100.0 %
Test CRC A6319ADC
Copy CRC A6319ADC
Accurately ripped (confidence 2) [DE642377] (AR v1)
Copy OK
Track 5
Filename C:\EAC rips\Medeski, Martin & Wood - Farmers Reserve (1997) [FLAC]\05 - Part II.wav
Peak level 87.6 %
Extraction speed 2.6 X
Track quality 100.0 %
Test CRC 3EE02CBF
Copy CRC 3EE02CBF
Accurately ripped (confidence 2) [481E9FC3] (AR v1)
Copy OK
Track 6
Filename C:\EAC rips\Medeski, Martin & Wood - Farmers Reserve (1997) [FLAC]\06 - Part II.wav
Peak level 69.1 %
Extraction speed 2.1 X
Track quality 99.9 %
Test CRC 0960B8E3
Copy CRC 0960B8E3
Accurately ripped (confidence 2) [63E90C21] (AR v1)
Copy OK
Track 7
Filename C:\EAC rips\Medeski, Martin & Wood - Farmers Reserve (1997) [FLAC]\07 - Part II.wav
Peak level 66.9 %
Extraction speed 2.6 X
Track quality 100.0 %
Test CRC 649CDD3F
Copy CRC 649CDD3F
Accurately ripped (confidence 2) [28B60743] (AR v1)
Copy OK
Track 8
Filename C:\EAC rips\Medeski, Martin & Wood - Farmers Reserve (1997) [FLAC]\08 - Part II.wav
Peak level 94.8 %
Extraction speed 3.1 X
Track quality 100.0 %
Test CRC 2729ADBB
Copy CRC 2729ADBB
Accurately ripped (confidence 2) [1070A4A5] (AR v1)
Copy OK
Track 9
Filename C:\EAC rips\Medeski, Martin & Wood - Farmers Reserve (1997) [FLAC]\09 - Part III.wav
Peak level 99.1 %
Extraction speed 3.0 X
Track quality 100.0 %
Test CRC AD34A7CC
Copy CRC AD34A7CC
Accurately ripped (confidence 2) [D0E9BFA9] (AR v1)
Copy OK
Track 10
Filename C:\EAC rips\Medeski, Martin & Wood - Farmers Reserve (1997) [FLAC]\10 - Part III.wav
Peak level 98.3 %
Extraction speed 2.5 X
Track quality 99.9 %
Test CRC 2478A257
Copy CRC 2478A257
Accurately ripped (confidence 2) [14DBF6ED] (AR v1)
Copy OK
Track 11
Filename C:\EAC rips\Medeski, Martin & Wood - Farmers Reserve (1997) [FLAC]\11 - Epilogue.wav
Peak level 91.2 %
Extraction speed 3.8 X
Track quality 100.0 %
Test CRC 7712ED31
Copy CRC 7712ED31
Accurately ripped (confidence 2) [5C821634] (AR v1)
Copy OK
All tracks accurately ripped
No errors occurred
End of status report
---- CUETools DB Plugin V2.1.4
[CTDB TOCID: 6yR9WyGnpS1e4K1HdT2zSmktyt4-] found
Submit result: 6yR9WyGnpS1e4K1HdT2zSmktyt4- has been confirmed
Track | CTDB Status
1 | (1/1) Accurately ripped
2 | (1/1) Accurately ripped
3 | (1/1) Accurately ripped
4 | (1/1) Accurately ripped
5 | (1/1) Accurately ripped
6 | (1/1) Accurately ripped
7 | (1/1) Accurately ripped
8 | (1/1) Accurately ripped
9 | (1/1) Accurately ripped
10 | (1/1) Accurately ripped
11 | (1/1) Accurately ripped
==== Log checksum 6D53191DF8E883ABEAE8B056CBCFE951D6ED198E089D1FFD392874CE53CF4DF7 ====
 
Содержание индексной карты (.CUE)
REM GENRE Jazz
REM DATE 1997
REM DISCID 920D870B
REM COMMENT "ExactAudioCopy v1.0b3"
PERFORMER "Medeski Martin & Wood"
TITLE "Farmers Reserve"
FILE "01 - Part I.wav" WAVE
TRACK 01 AUDIO
TITLE "Part I"
PERFORMER "Medeski Martin & Wood"
INDEX 01 00:00:00
FILE "02 - Part I.wav" WAVE
TRACK 02 AUDIO
TITLE "Part I"
PERFORMER "Medeski Martin & Wood"
INDEX 01 00:00:00
FILE "03 - Part I.wav" WAVE
TRACK 03 AUDIO
TITLE "Part I"
PERFORMER "Medeski Martin & Wood"
INDEX 01 00:00:00
FILE "04 - Part I.wav" WAVE
TRACK 04 AUDIO
TITLE "Part I"
PERFORMER "Medeski Martin & Wood"
INDEX 01 00:00:00
FILE "05 - Part II.wav" WAVE
TRACK 05 AUDIO
TITLE "Part II"
PERFORMER "Medeski Martin & Wood"
INDEX 01 00:00:00
FILE "06 - Part II.wav" WAVE
TRACK 06 AUDIO
TITLE "Part II"
PERFORMER "Medeski Martin & Wood"
INDEX 01 00:00:00
FILE "07 - Part II.wav" WAVE
TRACK 07 AUDIO
TITLE "Part II"
PERFORMER "Medeski Martin & Wood"
INDEX 01 00:00:00
FILE "08 - Part II.wav" WAVE
TRACK 08 AUDIO
TITLE "Part II"
PERFORMER "Medeski Martin & Wood"
INDEX 01 00:00:00
FILE "09 - Part III.wav" WAVE
TRACK 09 AUDIO
TITLE "Part III"
PERFORMER "Medeski Martin & Wood"
INDEX 01 00:00:00
FILE "10 - Part III.wav" WAVE
TRACK 10 AUDIO
TITLE "Part III"
PERFORMER "Medeski Martin & Wood"
INDEX 01 00:00:00
FILE "11 - Epilogue.wav" WAVE
TRACK 11 AUDIO
TITLE "Epilogue"
PERFORMER "Medeski Martin & Wood"
INDEX 01 00:00:00
 
Отчет CUETools
[CUETools log; Date: 26.12.2012 12:26:33; Version: 2.1.4]
[CTDB TOCID: 6yR9WyGnpS1e4K1HdT2zSmktyt4-] found.
Track | CTDB Status
1 | (2/2) Accurately ripped
2 | (2/2) Accurately ripped
3 | (2/2) Accurately ripped
4 | (2/2) Accurately ripped
5 | (2/2) Accurately ripped
6 | (2/2) Accurately ripped
7 | (2/2) Accurately ripped
8 | (2/2) Accurately ripped
9 | (2/2) Accurately ripped
10 | (2/2) Accurately ripped
11 | (2/2) Accurately ripped
[AccurateRip ID: 00139261-00adcb84-920d870b] found.
Track [ CRC | V2 ] Status
01 [c66e5ae3|90c217db] (2+0/4) Accurately ripped
02 [e8c0902a|635b9427] (2+0/4) Accurately ripped
03 [21787de8|4cb4ebd0] (2+0/4) Accurately ripped
04 [de642377|88467dda] (2+0/4) Accurately ripped
05 [481e9fc3|6cba1df0] (2+0/4) Accurately ripped
06 [63e90c21|bc12fffc] (2+0/4) Accurately ripped
07 [28b60743|92d97e61] (2+0/4) Accurately ripped
08 [1070a4a5|df3b4ff7] (2+0/4) Accurately ripped
09 [d0e9bfa9|ff234c43] (2+0/4) Accurately ripped
10 [14dbf6ed|12b3d81d] (2+0/4) Accurately ripped
11 [5c821634|09ebe61e] (2+0/2) Accurately ripped
Offsetted by -669:
01 [c1db48a1] (2/4) Accurately ripped
02 [2817cbf3] (2/4) Accurately ripped
03 [9d9e998e] (2/4) Accurately ripped
04 [f66f193d] (2/4) Accurately ripped
05 [124e8f78] (2/4) Accurately ripped
06 [5c11367a] (2/4) Accurately ripped
07 [f6182e54] (2/4) Accurately ripped
08 [fcaa2487] (2/4) Accurately ripped
09 [0498c6a2] (2/4) Accurately ripped
10 [0127fac2] (2/4) Accurately ripped
11 [a330e862] (0/2) No match (V2 was not tested)
Track Peak [ CRC32 ] [W/O NULL] [ LOG ]
-- 99,1 [08110CA7] [DF029E63]
01 87,6 [FC2C6F81] [9D345B00] CRC32
02 60,7 [F2FB1834] [688A798E] CRC32
03 86,1 [43A75CA1] [49345170] CRC32
04 70,9 [A6319ADC] [CAB4DCB1] CRC32
05 87,5 [3EE02CBF] [5BE969E9] CRC32
06 69,1 [0960B8E3] [1F5FB573] CRC32
07 66,9 [649CDD3F] [349F9498] CRC32
08 94,8 [2729ADBB] [D16C27C2] CRC32
09 99,1 [AD34A7CC] [460F57F8] CRC32
10 98,3 [2478A257] [70FD3637] CRC32
11 91,2 [7712ED31] [0FE7A14F] CRC32
 
Review by Sean Westergaard
Farmer's Reserve is the initial release on Medeski, Martin & Wood's Indirecto label. Probably deemed too "out" for major commercial release, this recording shows that their free improvisation credentials are still up to date. John Medeski left his Clavinet and Hammond organs at home, and concentrated on prepared piano, toy piano, and sparing use of a Yamaha synth. Chris Wood plays acoustic bass, and drummer Billy Martin has his usual assortment of drums and hand percussion. Leaving behind the groove aesthetic that has garnered them so much popularity, this record showcases each musician's ability to create and respond simultaneously. The album is basically four improvised pieces, with most of the pieces having a series of "movements." Years of playing together have given them nearly telepathic interplay. They know when to explore a musical area they've discovered, and when to move on as well. Although the music is free improvised, this is not to say that it doesn't have any melodic or rhythmic sense whatsoever -- but that's not the goal here. This recording is a document of a moment in time when three longtime friends/musicians spontaneously created music with no rules or preconceptions. Hats off to MMW for taking a chance like this.
Здесь - другое издание.
По всем вопросам пишите личное сообщение пользователю M0p94ok.
06:47
138
Нет комментариев. Ваш будет первым!